<?xml version="1.0" standalone="no"?>
<!DOCTYPE svg PUBLIC "-//W3C//DTD SVG 1.1//EN" "http://www.w3.org/Graphics/SVG/1.1/DTD/svg11.dtd" >
<svg>
<metadata>
Created by FontForge 20120731 at Tue Apr  9 02:28:19 2019
 By www-data
Copyright 2017 The Barlow Project Authors (https://github.com/jpt/barlow)
</metadata>
<defs>
<font id="Barlow-Italic" horiz-adv-x="0" >
  <font-face 
    font-family="Barlow"
    font-weight="400"
    font-style="italic"
    font-stretch="normal"
    units-per-em="1000"
    panose-1="0 0 5 0 0 0 0 0 0 0"
    ascent="800"
    descent="-200"
    x-height="506"
    cap-height="700"
    bbox="-528.286 -209 1099 1084"
    underline-thickness="50"
    underline-position="-50"
    slope="-7"
    unicode-range="U+000D-FB02"
  />
<missing-glyph horiz-adv-x="406" 
d="M-18 1q1 -1 2 -1h399q3 0 5 4l84 692q1 1 0 2.5t-3 1.5h-399q-4 0 -4 -4l-85 -692q0 -2 1 -3zM182.5 235q-2.5 3 -1.5 7l5 40q3 30 20 49t50 44q36 26 54 48.5t18 59.5q0 30 -19 48t-52 18q-38 0 -64 -22t-30 -58l-2 -19q-2 -10 -11 -10l-29 2q-10 0 -8 10l2 17
q7 57 48 92t100 35q53 0 84 -29t31 -78q0 -13 -1 -19q-6 -45 -27.5 -71.5t-58.5 -52.5q-28 -21 -40.5 -34t-14.5 -33l-5 -37q0 -4 -3 -7t-7 -3h-31q-5 0 -7.5 3zM162 100.5q-9 9.5 -9 24.5q0 20 12.5 33t31.5 13q15 0 24 -9.5t9 -24.5q0 -19 -12.5 -32.5t-30.5 -13.5
q-16 0 -25 9.5z" />
    <glyph glyph-name="fi" unicode="fi" horiz-adv-x="593" 
d="M254.5 613.5q-22.5 -24.5 -29.5 -83.5l-2 -20q-1 -1 0 -2.5t3 -1.5h109q10 0 8 -10l-5 -45q-2 -10 -11 -10h-109q-4 0 -4 -4l-53 -427q0 -4 -3 -7t-8 -3h-48q-9 0 -9 10l53 427q0 4 -4 4h-65q-4 0 -6.5 3t-1.5 7l5 45q1 4 4 7t7 3h65q2 0 3.5 1t1.5 3l3 24q7 61 25 97
t53.5 52.5t95.5 16.5h28q5 0 7.5 -3t1.5 -7l-5 -42q-2 -10 -11 -10h-22q-54 0 -76.5 -24.5zM489.5 611.5q-13.5 13.5 -13.5 34.5q0 27 18.5 45.5t43.5 18.5q21 0 34.5 -13t13.5 -35q0 -27 -18 -45.5t-44 -18.5q-21 0 -34.5 13.5zM415 11l60 486q2 10 11 10h49q5 0 7.5 -3
t1.5 -7l-60 -486q-2 -10 -11 -10h-49q-9 0 -9 10z" />
    <glyph glyph-name="fl" unicode="fl" horiz-adv-x="569" 
d="M254.5 613.5q-22.5 -24.5 -29.5 -83.5l-2 -20q-1 -1 0 -2.5t3 -1.5h109q10 0 8 -10l-5 -45q-2 -10 -11 -10h-109q-4 0 -4 -4l-53 -427q0 -4 -3 -7t-8 -3h-48q-9 0 -9 10l53 427q0 4 -4 4h-65q-4 0 -6.5 3t-1.5 7l5 45q1 4 4 7t7 3h65q2 0 3.5 1t1.5 3l3 24q7 61 25 97
t53.5 52.5t95.5 16.5h28q5 0 7.5 -3t1.5 -7l-5 -42q-2 -10 -11 -10h-22q-54 0 -76.5 -24.5zM405 10l84 680q2 10 11 10h49q5 0 7.5 -3t1.5 -7l-84 -680q0 -4 -3 -7t-8 -3h-49q-9 0 -9 10z" />
    <glyph glyph-name="I_J.liga" unicode="IJ" horiz-adv-x="811" 
d="M74.5 3q-2.5 3 -1.5 7l84 680q0 4 3 7t7 3h50q10 0 8 -10l-83 -680q-2 -10 -11 -10h-50q-4 0 -6.5 3zM335 40.5q-53 48.5 -53 130.5q0 10 2 30l10 76q0 4 3 7t8 3h49q9 0 9 -10l-10 -76q-1 -8 -1 -23q0 -57 36 -90.5t99 -33.5q68 0 114.5 40.5t54.5 106.5l60 489
q2 10 11 10h49q5 0 7.5 -3t1.5 -7l-60 -489q-8 -62 -41.5 -109.5t-86.5 -73.5t-118 -26q-91 0 -144 48.5z" />
    <glyph glyph-name="f_f_i.liga" unicode="ffi" horiz-adv-x="911" 
d="M889.5 697q13.5 -13 13.5 -35q0 -27 -17.5 -45.5t-43.5 -18.5q-22 0 -35.5 13.5t-13.5 34.5q0 27 18 45.5t44 18.5q21 0 34.5 -13zM219 510q0 -4 3 -4h121q5 0 7.5 -3t1.5 -7l-5 -39q-2 -10 -11 -10h-121q-4 0 -4 -4l-54 -433q0 -4 -3 -7t-8 -3h-48q-9 0 -9 10l54 433
q0 4 -4 4h-61q-10 0 -8 10l4 39q1 4 4 7t7 3h62q1 0 2.5 1t1.5 3l4 35q10 81 49 118.5t126 36.5h29q4 0 6.5 -3t1.5 -7l-4 -32q-2 -10 -11 -10h-28q-52 -1 -73.5 -27t-28.5 -81zM529.5 663.5q39.5 37.5 126.5 36.5h28q5 0 7.5 -3t1.5 -7l-4 -32q-2 -10 -11 -10h-28
q-52 -1 -73.5 -27t-28.5 -81l-3 -30q-1 -1 0 -2.5t3 -1.5h113q4 0 6.5 -3t1.5 -7l-5 -39q0 -4 -3 -7t-8 -3h-112q-3 0 -5 -4l-53 -433q0 -4 -3 -7t-8 -3h-49q-9 0 -9 10l54 433q0 4 -4 4h-89q-10 0 -8 10l4 39q2 10 11 10h89q2 0 3.5 1t1.5 3l4 35q10 81 49.5 118.5zM733 11
l59 486q1 4 4 7t7 3h50q10 0 8 -10l-59 -486q-1 -4 -4 -7t-7 -3h-50q-10 0 -8 10z" />
    <glyph glyph-name="f_f_l.liga" unicode="ffl" horiz-adv-x="891" 
d="M529.5 663.5q39.5 37.5 126.5 36.5h28q5 0 7.5 -3t1.5 -7l-4 -32q-2 -10 -11 -10h-28q-52 -1 -73.5 -27t-28.5 -81l-3 -30q-1 -1 0 -2.5t3 -1.5h113q4 0 6.5 -3t1.5 -7l-5 -39q0 -4 -3 -7t-8 -3h-112q-3 0 -5 -4l-53 -433q0 -4 -3 -7t-8 -3h-49q-9 0 -9 10l54 433
q0 4 -4 4h-249q-4 0 -4 -4l-54 -433q0 -4 -3 -7t-8 -3h-48q-9 0 -9 10l54 433q0 4 -4 4h-61q-10 0 -8 10l4 39q1 4 4 7t7 3h62q1 0 2.5 1t1.5 3l4 35q10 81 49 118.5t126 36.5h29q4 0 6.5 -3t1.5 -7l-4 -32q-2 -10 -11 -10h-28q-52 -1 -73.5 -27t-28.5 -81l-3 -30q0 -4 3 -4
h249q2 0 3.5 1t1.5 3l4 35q10 81 49.5 118.5zM821 700h50q4 0 6.5 -3t1.5 -7l-83 -680q-2 -10 -11 -10h-50q-10 0 -8 10l83 680q2 10 11 10z" />
    <glyph glyph-name="g_j.liga" unicode="gj" horiz-adv-x="757" 
d="M735.5 697q13.5 -13 13.5 -35q0 -27 -18 -45.5t-44 -18.5q-22 0 -35 13.5t-13 34.5q0 28 18 46t44 18q21 0 34.5 -13zM415 454q2 1 2 3l5 39q0 4 3 7t8 3h49q9 0 9 -10l-59 -479q-14 -112 -83 -164t-178 -52q-23 0 -34 1q-10 1 -9 11l8 46q2 11 11 9l27 -1q89 0 134 36.5
t55 115.5l5 37q0 2 -1.5 2.5t-3.5 -1.5q-51 -60 -134 -60q-63 0 -108 35t-54 99q-2 22 -2 37q0 37 6 85q10 87 28 128q25 60 75 96.5t114 36.5q86 0 124 -59q1 -2 3 -1zM640 496q2 10 11 10h49q5 0 7.5 -3t1.5 -7l-66 -540q-10 -83 -58.5 -123t-133.5 -41q-9 0 -9 10l5 41
q2 10 11 10q48 2 79 28t37 75zM383 187q3 18 9 67q8 67 8 85q0 10 -1 16q-2 42 -30 69.5t-74 27.5t-81 -27t-52 -70q-13 -31 -22 -100q-5 -37 -5 -71q0 -18 2 -30q5 -42 34.5 -69.5t75.5 -27.5q48 0 81.5 27t46.5 69q5 16 8 34z" />
    <glyph glyph-name="i_j.liga" unicode="ij" horiz-adv-x="485" 
d="M143 611.5q-13 13.5 -13 34.5q0 28 18 46t44 18q21 0 34.5 -13t13.5 -35q0 -27 -18 -45.5t-44 -18.5q-22 0 -35 13.5zM377 614q-13 16 -11 40q4 25 21 40.5t41 15.5q21 0 34 -13t13 -34q0 -28 -17.5 -46.5t-43.5 -18.5q-24 0 -37 16zM74.5 3q-2.5 3 -1.5 7l60 486
q0 4 3 7t8 3h49q9 0 9 -10l-60 -486q-2 -10 -11 -10h-50q-4 0 -6.5 3zM169 -198l5 41q0 4 3 7t8 3q104 1 116 103l66 540q1 4 4 7t7 3h50q10 0 8 -10l-66 -540q-11 -85 -56.5 -124t-136.5 -40q-10 0 -8 10z" />
    <glyph glyph-name="hyphen_hyphen.liga" unicode="&#x2d;&#x2d;" horiz-adv-x="665" 
d="M54 283l5 42q0 4 3 7t8 3h569q9 0 9 -10l-6 -42q0 -4 -3 -7t-8 -3h-569q-10 0 -8 10z" />
    <glyph glyph-name=".notdef" horiz-adv-x="406" 
d="M-18 1q1 -1 2 -1h399q3 0 5 4l84 692q1 1 0 2.5t-3 1.5h-399q-4 0 -4 -4l-85 -692q0 -2 1 -3zM182.5 235q-2.5 3 -1.5 7l5 40q3 30 20 49t50 44q36 26 54 48.5t18 59.5q0 30 -19 48t-52 18q-38 0 -64 -22t-30 -58l-2 -19q-2 -10 -11 -10l-29 2q-10 0 -8 10l2 17
q7 57 48 92t100 35q53 0 84 -29t31 -78q0 -13 -1 -19q-6 -45 -27.5 -71.5t-58.5 -52.5q-28 -21 -40.5 -34t-14.5 -33l-5 -37q0 -4 -3 -7t-7 -3h-31q-5 0 -7.5 3zM162 100.5q-9 9.5 -9 24.5q0 20 12.5 33t31.5 13q15 0 24 -9.5t9 -24.5q0 -19 -12.5 -32.5t-30.5 -13.5
q-16 0 -25 9.5z" />
    <glyph glyph-name="NULL" 
 />
    <glyph glyph-name="NULL" 
 />
    <glyph glyph-name="nonmarkingreturn" unicode="&#xd;" horiz-adv-x="194" 
 />
    <glyph glyph-name="space" unicode=" " horiz-adv-x="194" 
 />
    <glyph glyph-name="A" unicode="A" horiz-adv-x="589" 
d="M464 8l-24 126q0 3 -3 3h-290q-3 0 -4 -3l-55 -126q-3 -8 -12 -8h-53q-11 0 -6 11l298 681q1 4 5 6t7 2h66q4 0 7 -2t4 -6l132 -681v-2q0 -9 -9 -9h-53q-8 0 -10 8zM170 196.5q1 -1.5 3 -1.5h251q2 0 3.5 2t0.5 3l-76 408q-1 2 -2.5 2t-3.5 -2l-176 -408q-1 -2 0 -3.5z
" />
    <glyph glyph-name="Aacute" unicode="&#xc1;" horiz-adv-x="589" 
d="M464 8l-24 126q0 3 -3 3h-290q-3 0 -4 -3l-55 -126q-3 -8 -12 -8h-53q-11 0 -6 11l298 681q1 4 5 6t7 2h66q4 0 7 -2t4 -6l132 -681v-2q0 -9 -9 -9h-53q-8 0 -10 8zM170 196.5q1 -1.5 3 -1.5h251q2 0 3.5 2t0.5 3l-76 408q-1 2 -2.5 2t-3.5 -2l-176 -408q-1 -2 0 -3.5z
M328 769.5q-2 3.5 2 8.5l72 109q3 7 12 7h44q6 0 7 -3.5t-3 -8.5l-79 -109q-7 -7 -13 -7h-35q-5 0 -7 3.5z" />
    <glyph glyph-name="Abreve" unicode="&#x102;" horiz-adv-x="589" 
d="M464 8l-24 126q0 3 -3 3h-290q-3 0 -4 -3l-55 -126q-3 -8 -12 -8h-53q-11 0 -6 11l298 681q1 4 5 6t7 2h66q4 0 7 -2t4 -6l132 -681v-2q0 -9 -9 -9h-53q-8 0 -10 8zM170 196.5q1 -1.5 3 -1.5h251q2 0 3.5 2t0.5 3l-76 408q-1 2 -2.5 2t-3.5 -2l-176 -408q-1 -2 0 -3.5z
M288 784.5q-30 28.5 -29 72.5q2 10 11 10h29q9 0 9 -10q1 -26 19 -42.5t44 -16.5q28 0 50 16.5t28 42.5q3 10 12 10h29q11 0 8 -9q-9 -44 -46 -73t-86 -29q-48 0 -78 28.5z" />
    <glyph glyph-name="uni1EAE" unicode="&#x1eae;" horiz-adv-x="589" 
d="M464 8l-24 126q0 3 -3 3h-290q-3 0 -4 -3l-55 -126q-3 -8 -12 -8h-53q-11 0 -6 11l298 681q1 4 5 6t7 2h66q4 0 7 -2t4 -6l132 -681v-2q0 -9 -9 -9h-53q-8 0 -10 8zM170 196.5q1 -1.5 3 -1.5h251q2 0 3.5 2t0.5 3l-76 408q-1 2 -2.5 2t-3.5 -2l-176 -408q-1 -2 0 -3.5z
M290 804.5q-30 28.5 -28 70.5q0 10 10 10h26q9 0 9 -8q0 -26 19 -43.5t47 -17.5t51 16.5t30 42.5q3 10 12 10h26q11 0 8 -9q-8 -43 -45.5 -71.5t-86.5 -28.5q-48 0 -78 28.5zM359 916.5q-2 3.5 2 8.5l72 109q3 7 12 7h44q6 0 7 -3.5t-3 -8.5l-79 -109q-7 -7 -13 -7h-35
q-5 0 -7 3.5z" />
    <glyph glyph-name="uni1EB6" unicode="&#x1eb6;" horiz-adv-x="589" 
d="M464 8l-24 126q0 3 -3 3h-290q-3 0 -4 -3l-55 -126q-3 -8 -12 -8h-53q-11 0 -6 11l298 681q1 4 5 6t7 2h66q4 0 7 -2t4 -6l132 -681v-2q0 -9 -9 -9h-53q-8 0 -10 8zM170 196.5q1 -1.5 3 -1.5h251q2 0 3.5 2t0.5 3l-76 408q-1 2 -2.5 2t-3.5 -2l-176 -408q-1 -2 0 -3.5z
M220 -171q-12 13 -12 34q0 25 17 42t41 17q20 0 33 -12.5t13 -32.5q0 -25 -17.5 -43t-41.5 -18q-21 0 -33 13zM290 804.5q-30 28.5 -28 70.5q0 10 10 10h26q9 0 9 -8q0 -26 19 -43.5t47 -17.5t51 16.5t30 42.5q3 10 12 10h26q11 0 8 -9q-8 -43 -45.5 -71.5t-86.5 -28.5
q-48 0 -78 28.5z" />
    <glyph glyph-name="uni1EB0" unicode="&#x1eb0;" horiz-adv-x="589" 
d="M464 8l-24 126q0 3 -3 3h-290q-3 0 -4 -3l-55 -126q-3 -8 -12 -8h-53q-11 0 -6 11l298 681q1 4 5 6t7 2h66q4 0 7 -2t4 -6l132 -681v-2q0 -9 -9 -9h-53q-8 0 -10 8zM170 196.5q1 -1.5 3 -1.5h251q2 0 3.5 2t0.5 3l-76 408q-1 2 -2.5 2t-3.5 -2l-176 -408q-1 -2 0 -3.5z
M290 804.5q-30 28.5 -28 70.5q0 10 10 10h26q9 0 9 -8q0 -26 19 -43.5t47 -17.5t51 16.5t30 42.5q3 10 12 10h26q11 0 8 -9q-8 -43 -45.5 -71.5t-86.5 -28.5q-48 0 -78 28.5zM414 920q0 -7 -9 -7h-35q-6 0 -11 7l-52 109q-1 2 -1 6q0 6 8 6h44q9 0 10 -7l45 -109q1 -2 1 -5z
" />
    <glyph glyph-name="uni1EB2" unicode="&#x1eb2;" horiz-adv-x="589" 
d="M464 8l-24 126q0 3 -3 3h-290q-3 0 -4 -3l-55 -126q-3 -8 -12 -8h-53q-11 0 -6 11l298 681q1 4 5 6t7 2h66q4 0 7 -2t4 -6l132 -681v-2q0 -9 -9 -9h-53q-8 0 -10 8zM170 196.5q1 -1.5 3 -1.5h251q2 0 3.5 2t0.5 3l-76 408q-1 2 -2.5 2t-3.5 -2l-176 -408q-1 -2 0 -3.5z
M290 804.5q-30 28.5 -28 70.5q0 10 10 10h26q9 0 9 -8q0 -26 19 -43.5t47 -17.5t51 16.5t30 42.5q3 10 12 10h26q11 0 8 -9q-8 -43 -45.5 -71.5t-86.5 -28.5q-48 0 -78 28.5zM370.5 905.5q-1.5 3.5 0.5 7.5q8 15 16.5 24.5t22.5 22.5t21 23t9 25q2 14 -9 25t-27 11
q-17 0 -28.5 -7.5t-28.5 -28.5q-8 -8 -14 -2l-14 10q-7 6 -1 14q22 29 42 41.5t51 12.5q33 0 53 -18.5t20 -47.5q0 -26 -11.5 -43t-34.5 -37q-24 -22 -31 -35q-6 -7 -14 -6l-17 4q-4 1 -5.5 4.5z" />
    <glyph glyph-name="uni1EB4" unicode="&#x1eb4;" horiz-adv-x="589" 
d="M464 8l-24 126q0 3 -3 3h-290q-3 0 -4 -3l-55 -126q-3 -8 -12 -8h-53q-11 0 -6 11l298 681q1 4 5 6t7 2h66q4 0 7 -2t4 -6l132 -681v-2q0 -9 -9 -9h-53q-8 0 -10 8zM170 196.5q1 -1.5 3 -1.5h251q2 0 3.5 2t0.5 3l-76 408q-1 2 -2.5 2t-3.5 -2l-176 -408q-1 -2 0 -3.5z
M393 942l-12 8t-16.5 8.5t-15.5 2.5q-16 0 -28 -5.5t-25 -18.5q-7 -9 -14 -2l-14 16q-7 7 -1 14q35 47 86 47q15 0 25.5 -4.5t19 -10t11.5 -7.5q17 -11 25.5 -15t18.5 -4q30 0 52 27q8 8 14 1l14 -15q2 -4 2 -6q0 -4 -3 -9q-16 -23 -38.5 -35t-46.5 -12q-28 0 -54 20z
M290 804.5q-30 28.5 -28 70.5q0 10 10 10h26q9 0 9 -8q0 -26 19 -43.5t47 -17.5t51 16.5t30 42.5q3 10 12 10h26q11 0 8 -9q-8 -43 -45.5 -71.5t-86.5 -28.5q-48 0 -78 28.5z" />
    <glyph glyph-name="uni01CD" unicode="&#x1cd;" horiz-adv-x="589" 
d="M464 8l-24 126q0 3 -3 3h-290q-3 0 -4 -3l-55 -126q-3 -8 -12 -8h-53q-11 0 -6 11l298 681q1 4 5 6t7 2h66q4 0 7 -2t4 -6l132 -681v-2q0 -9 -9 -9h-53q-8 0 -10 8zM170 196.5q1 -1.5 3 -1.5h251q2 0 3.5 2t0.5 3l-76 408q-1 2 -2.5 2t-3.5 -2l-176 -408q-1 -2 0 -3.5z
M263 885q0 7 9 7h39q10 0 12 -6l49 -82q1 -1 3 -1t3 1l68 82q5 6 13 6h39q6 0 7.5 -3.5t-2.5 -8.5l-92 -108q-5 -6 -14 -6h-56q-8 0 -12 6l-64 108z" />
    <glyph glyph-name="Acircumflex" unicode="&#xc2;" horiz-adv-x="589" 
d="M464 8l-24 126q0 3 -3 3h-290q-3 0 -4 -3l-55 -126q-3 -8 -12 -8h-53q-11 0 -6 11l298 681q1 4 5 6t7 2h66q4 0 7 -2t4 -6l132 -681v-2q0 -9 -9 -9h-53q-8 0 -10 8zM170 196.5q1 -1.5 3 -1.5h251q2 0 3.5 2t0.5 3l-76 408q-1 2 -2.5 2t-3.5 -2l-176 -408q-1 -2 0 -3.5z
M247.5 771.5q-1.5 3.5 2.5 8.5l91 108q5 6 14 6h56q8 0 12 -6l65 -108l2 -5q0 -7 -9 -7h-39q-10 0 -12 6l-48 82q-1 2 -3 2t-3 -2l-69 -82q-5 -6 -13 -6h-39q-6 0 -7.5 3.5z" />
    <glyph glyph-name="uni1EA4" unicode="&#x1ea4;" horiz-adv-x="589" 
d="M464 8l-24 126q0 3 -3 3h-290q-3 0 -4 -3l-55 -126q-3 -8 -12 -8h-53q-11 0 -6 11l298 681q1 4 5 6t7 2h66q4 0 7 -2t4 -6l132 -681v-2q0 -9 -9 -9h-53q-8 0 -10 8zM170 196.5q1 -1.5 3 -1.5h251q2 0 3.5 2t0.5 3l-76 408q-1 2 -2.5 2t-3.5 -2l-176 -408q-1 -2 0 -3.5z
M247.5 771.5q-1.5 3.5 2.5 8.5l91 108q5 6 14 6h56q8 0 12 -6l65 -108l2 -5q0 -7 -9 -7h-39q-10 0 -12 6l-48 82q-1 2 -3 2t-3 -2l-69 -82q-5 -6 -13 -6h-39q-6 0 -7.5 3.5zM498 845.5q-2 3.5 2 8.5l72 109q3 7 12 7h44q6 0 7 -3.5t-3 -8.5l-79 -109q-7 -7 -13 -7h-35
q-5 0 -7 3.5z" />
    <glyph glyph-name="uni1EAC" unicode="&#x1eac;" horiz-adv-x="589" 
d="M464 8l-24 126q0 3 -3 3h-290q-3 0 -4 -3l-55 -126q-3 -8 -12 -8h-53q-11 0 -6 11l298 681q1 4 5 6t7 2h66q4 0 7 -2t4 -6l132 -681v-2q0 -9 -9 -9h-53q-8 0 -10 8zM170 196.5q1 -1.5 3 -1.5h251q2 0 3.5 2t0.5 3l-76 408q-1 2 -2.5 2t-3.5 -2l-176 -408q-1 -2 0 -3.5z
M220 -171q-12 13 -12 34q0 25 17 42t41 17q20 0 33 -12.5t13 -32.5q0 -25 -17.5 -43t-41.5 -18q-21 0 -33 13zM247.5 771.5q-1.5 3.5 2.5 8.5l91 108q5 6 14 6h56q8 0 12 -6l65 -108l2 -5q0 -7 -9 -7h-39q-10 0 -12 6l-48 82q-1 2 -3 2t-3 -2l-69 -82q-5 -6 -13 -6h-39
q-6 0 -7.5 3.5z" />
    <glyph glyph-name="uni1EA6" unicode="&#x1ea6;" horiz-adv-x="589" 
d="M464 8l-24 126q0 3 -3 3h-290q-3 0 -4 -3l-55 -126q-3 -8 -12 -8h-53q-11 0 -6 11l298 681q1 4 5 6t7 2h66q4 0 7 -2t4 -6l132 -681v-2q0 -9 -9 -9h-53q-8 0 -10 8zM170 196.5q1 -1.5 3 -1.5h251q2 0 3.5 2t0.5 3l-76 408q-1 2 -2.5 2t-3.5 -2l-176 -408q-1 -2 0 -3.5z
M247.5 771.5q-1.5 3.5 2.5 8.5l91 108q5 6 14 6h56q8 0 12 -6l65 -108l2 -5q0 -7 -9 -7h-39q-10 0 -12 6l-48 82q-1 2 -3 2t-3 -2l-69 -82q-5 -6 -13 -6h-39q-6 0 -7.5 3.5zM544 889q0 -7 -9 -7h-35q-6 0 -11 7l-52 109q-1 2 -1 6q0 6 8 6h44q9 0 10 -7l45 -109q1 -2 1 -5z
" />
    <glyph glyph-name="uni1EA8" unicode="&#x1ea8;" horiz-adv-x="589" 
d="M464 8l-24 126q0 3 -3 3h-290q-3 0 -4 -3l-55 -126q-3 -8 -12 -8h-53q-11 0 -6 11l298 681q1 4 5 6t7 2h66q4 0 7 -2t4 -6l132 -681v-2q0 -9 -9 -9h-53q-8 0 -10 8zM170 196.5q1 -1.5 3 -1.5h251q2 0 3.5 2t0.5 3l-76 408q-1 2 -2.5 2t-3.5 -2l-176 -408q-1 -2 0 -3.5z
M247.5 771.5q-1.5 3.5 2.5 8.5l91 108q5 6 14 6h56q8 0 12 -6l65 -108l2 -5q0 -7 -9 -7h-39q-10 0 -12 6l-48 82q-1 2 -3 2t-3 -2l-69 -82q-5 -6 -13 -6h-39q-6 0 -7.5 3.5zM480.5 872.5q-1.5 3.5 0.5 7.5q8 15 16.5 24.5t22.5 22.5t21 23t9 25q2 14 -9 25t-27 11
q-17 0 -28.5 -7.5t-28.5 -28.5q-8 -8 -14 -2l-14 10q-7 6 -1 14q22 29 42 41.5t51 12.5q33 0 53 -18.5t20 -47.5q0 -26 -11.5 -43t-34.5 -37q-24 -22 -31 -35q-6 -7 -14 -6l-17 4q-4 1 -5.5 4.5z" />
    <glyph glyph-name="uni1EAA" unicode="&#x1eaa;" horiz-adv-x="589" 
d="M464 8l-24 126q0 3 -3 3h-290q-3 0 -4 -3l-55 -126q-3 -8 -12 -8h-53q-11 0 -6 11l298 681q1 4 5 6t7 2h66q4 0 7 -2t4 -6l132 -681v-2q0 -9 -9 -9h-53q-8 0 -10 8zM170 196.5q1 -1.5 3 -1.5h251q2 0 3.5 2t0.5 3l-76 408q-1 2 -2.5 2t-3.5 -2l-176 -408q-1 -2 0 -3.5z
M247.5 771.5q-1.5 3.5 2.5 8.5l91 108q5 6 14 6h56q8 0 12 -6l65 -108l2 -5q0 -7 -9 -7h-39q-10 0 -12 6l-48 82q-1 2 -3 2t-3 -2l-69 -82q-5 -6 -13 -6h-39q-6 0 -7.5 3.5zM417 931q-13 6 -26 16q-16 10 -25.5 14.5t-20.5 4.5q-17 0 -30.5 -5.5t-26.5 -19.5q-6 -9 -13 -2
l-16 18q-5 7 0 14q37 49 90 49q15 0 27 -5t21 -10.5t12 -7.5t12.5 -8t17.5 -9t16 -3q31 0 55 28q7 10 13 2l16 -17q3 -3 3 -7t-4 -8q-17 -24 -41 -37t-49 -13q-18 0 -31 6z" />
    <glyph glyph-name="Adieresis" unicode="&#xc4;" horiz-adv-x="589" 
d="M464 8l-24 126q0 3 -3 3h-290q-3 0 -4 -3l-55 -126q-3 -8 -12 -8h-53q-11 0 -6 11l298 681q1 4 5 6t7 2h66q4 0 7 -2t4 -6l132 -681v-2q0 -9 -9 -9h-53q-8 0 -10 8zM170 196.5q1 -1.5 3 -1.5h251q2 0 3.5 2t0.5 3l-76 408q-1 2 -2.5 2t-3.5 -2l-176 -408q-1 -2 0 -3.5z
M419 808.5q-13 13.5 -13 34.5q0 28 18 46t44 18q21 0 34.5 -13t13.5 -35q0 -27 -18 -45.5t-44 -18.5q-22 0 -35 13.5zM253 808.5q-13 13.5 -13 34.5q0 28 18 46t44 18q21 0 34.5 -13t13.5 -35q0 -27 -18 -45.5t-44 -18.5q-22 0 -35 13.5z" />
    <glyph glyph-name="uni1EA0" unicode="&#x1ea0;" horiz-adv-x="589" 
d="M464 8l-24 126q0 3 -3 3h-290q-3 0 -4 -3l-55 -126q-3 -8 -12 -8h-53q-11 0 -6 11l298 681q1 4 5 6t7 2h66q4 0 7 -2t4 -6l132 -681v-2q0 -9 -9 -9h-53q-8 0 -10 8zM170 196.5q1 -1.5 3 -1.5h251q2 0 3.5 2t0.5 3l-76 408q-1 2 -2.5 2t-3.5 -2l-176 -408q-1 -2 0 -3.5z
M220 -171q-12 13 -12 34q0 25 17 42t41 17q20 0 33 -12.5t13 -32.5q0 -25 -17.5 -43t-41.5 -18q-21 0 -33 13z" />
    <glyph glyph-name="Agrave" unicode="&#xc0;" horiz-adv-x="589" 
d="M464 8l-24 126q0 3 -3 3h-290q-3 0 -4 -3l-55 -126q-3 -8 -12 -8h-53q-11 0 -6 11l298 681q1 4 5 6t7 2h66q4 0 7 -2t4 -6l132 -681v-2q0 -9 -9 -9h-53q-8 0 -10 8zM170 196.5q1 -1.5 3 -1.5h251q2 0 3.5 2t0.5 3l-76 408q-1 2 -2.5 2t-3.5 -2l-176 -408q-1 -2 0 -3.5z
M396 773q0 -7 -9 -7h-35q-6 0 -11 7l-52 109q-1 2 -1 6q0 6 8 6h44q9 0 10 -7l45 -109q1 -2 1 -5z" />
    <glyph glyph-name="uni1EA2" unicode="&#x1ea2;" horiz-adv-x="589" 
d="M464 8l-24 126q0 3 -3 3h-290q-3 0 -4 -3l-55 -126q-3 -8 -12 -8h-53q-11 0 -6 11l298 681q1 4 5 6t7 2h66q4 0 7 -2t4 -6l132 -681v-2q0 -9 -9 -9h-53q-8 0 -10 8zM170 196.5q1 -1.5 3 -1.5h251q2 0 3.5 2t0.5 3l-76 408q-1 2 -2.5 2t-3.5 -2l-176 -408q-1 -2 0 -3.5z
M352.5 752.5q-1.5 3.5 0.5 7.5q8 15 16.5 24.5t22.5 22.5t21 23t9 25q2 14 -9 25t-27 11q-17 0 -28.5 -7.5t-28.5 -28.5q-8 -8 -14 -2l-14 10q-7 6 -1 14q22 29 42 41.5t51 12.5q33 0 53 -18.5t20 -47.5q0 -26 -11.5 -43t-34.5 -37q-24 -22 -31 -35q-6 -7 -14 -6l-17 4
q-4 1 -5.5 4.5z" />
    <glyph glyph-name="Amacron" unicode="&#x100;" horiz-adv-x="589" 
d="M464 8l-24 126q0 3 -3 3h-290q-3 0 -4 -3l-55 -126q-3 -8 -12 -8h-53q-11 0 -6 11l298 681q1 4 5 6t7 2h66q4 0 7 -2t4 -6l132 -681v-2q0 -9 -9 -9h-53q-8 0 -10 8zM170 196.5q1 -1.5 3 -1.5h251q2 0 3.5 2t0.5 3l-76 408q-1 2 -2.5 2t-3.5 -2l-176 -408q-1 -2 0 -3.5z
M242 798l4 31q0 4 3 7t7 3h242q10 0 8 -10l-3 -31q-2 -10 -11 -10h-242q-10 0 -8 10z" />
    <glyph glyph-name="Aogonek" unicode="&#x104;" horiz-adv-x="589" 
d="M464 8l-24 126q0 3 -3 3h-290q-3 0 -4 -3l-55 -126q-3 -8 -12 -8h-53q-11 0 -6 11l298 681q1 4 5 6t7 2h66q4 0 7 -2t4 -6l132 -681v-2q0 -9 -9 -9h-53q-8 0 -10 8zM170 196.5q1 -1.5 3 -1.5h251q2 0 3.5 2t0.5 3l-76 408q-1 2 -2.5 2t-3.5 -2l-176 -408q-1 -2 0 -3.5z
M529 -181q-20 -5 -41 -5q-34 0 -56 16.5t-22 55.5q0 57 70 110q7 4 13 4h27q7 0 7 -5q0 -3 -5 -7q-29 -23 -45.5 -47t-14.5 -47q1 -18 12.5 -27t29.5 -9q10 0 22 3l3 1q6 0 8 -9v-22q0 -9 -8 -12z" />
    <glyph glyph-name="Aring" unicode="&#xc5;" horiz-adv-x="589" 
d="M464 8l-24 126q0 3 -3 3h-290q-3 0 -4 -3l-55 -126q-3 -8 -12 -8h-53q-11 0 -6 11l298 681q1 4 5 6t7 2h66q4 0 7 -2t4 -6l132 -681v-2q0 -9 -9 -9h-53q-8 0 -10 8zM170 196.5q1 -1.5 3 -1.5h251q2 0 3.5 2t0.5 3l-76 408q-1 2 -2.5 2t-3.5 -2l-176 -408q-1 -2 0 -3.5z
M300.5 799.5q-26.5 26.5 -26.5 67.5q0 33 17 61t44.5 44.5t59.5 16.5q41 0 67.5 -27t26.5 -68q0 -33 -16.5 -60.5t-44.5 -44t-59 -16.5q-42 0 -68.5 26.5zM424.5 837q21.5 21 21.5 52q0 25 -15.5 41.5t-40.5 16.5q-30 0 -52 -22t-22 -53q0 -24 16.5 -40t41.5 -16
q29 0 50.5 21z" />
    <glyph glyph-name="Atilde" unicode="&#xc3;" horiz-adv-x="589" 
d="M464 8l-24 126q0 3 -3 3h-290q-3 0 -4 -3l-55 -126q-3 -8 -12 -8h-53q-11 0 -6 11l298 681q1 4 5 6t7 2h66q4 0 7 -2t4 -6l132 -681v-2q0 -9 -9 -9h-53q-8 0 -10 8zM170 196.5q1 -1.5 3 -1.5h251q2 0 3.5 2t0.5 3l-76 408q-1 2 -2.5 2t-3.5 -2l-176 -408q-1 -2 0 -3.5z
M401 803q-13 6 -26 16q-16 10 -25.5 14.5t-20.5 4.5q-17 0 -30.5 -5.5t-26.5 -19.5q-6 -9 -13 -2l-16 18q-5 7 0 14q37 49 90 49q15 0 27 -5t21 -10.5t12 -7.5t12.5 -8t17.5 -9t16 -3q31 0 55 28q7 10 13 2l16 -17q3 -3 3 -7t-4 -8q-17 -24 -41 -37t-49 -13q-18 0 -31 6z
" />
    <glyph glyph-name="AE" unicode="&#xc6;" horiz-adv-x="894" 
d="M894 641q-3 -3 -8 -3h-330q-2 0 -3.5 -1t-1.5 -3l-30 -247q0 -4 3 -4h224q5 0 7.5 -3t1.5 -7l-5 -42q-2 -10 -11 -10h-224q-3 0 -5 -4l-31 -251q0 -4 4 -4h331q4 0 6.5 -3t1.5 -7l-5 -42q-2 -10 -11 -10h-394q-10 0 -8 10l15 123q0 4 -4 4h-240q-2 0 -4 -3l-80 -127
q-4 -7 -12 -7h-57q-5 0 -6.5 3.5t1.5 8.5l432 681q3 7 12 7h431q10 0 8 -10l-5 -42q0 -4 -3 -7zM216 195h209q1 0 2.5 1t1.5 3l51 416q0 6 -5 1l-261 -416q-3 -5 2 -5z" />
    <glyph glyph-name="B" unicode="B" horiz-adv-x="608" 
d="M457 359q87 -37 87 -139q0 -8 -2 -30q-11 -90 -73 -140t-153 -50h-235q-4 0 -6.5 3t-1.5 7l84 680q0 4 3 7t7 3h228q86 0 134 -40t48 -114q0 -67 -31.5 -113t-88.5 -68q-5 -3 0 -6zM218 634l-29 -240q0 -4 3 -4h165q67 0 108.5 38.5t41.5 101.5q0 50 -32 79t-87 29h-165
q-3 0 -5 -4zM433 105.5q42 42.5 42 111.5q0 52 -32.5 82.5t-89.5 30.5h-168q-4 0 -4 -4l-32 -259q0 -4 3 -4h172q67 0 109 42.5z" />
    <glyph glyph-name="C" unicode="C" horiz-adv-x="589" 
d="M129.5 42q-54.5 51 -54.5 137q0 22 2 34l33 275q8 65 43 115t90 77.5t122 27.5q94 0 149 -50t55 -134q0 -10 -2 -32q-2 -11 -11 -11l-50 -3q-9 0 -9 9l1 3q1 8 1 23q0 61 -37.5 97t-103.5 36q-71 0 -120.5 -43t-58.5 -113l-34 -280q-1 -8 -1 -23q0 -61 38 -97t103 -36
q72 0 121 43t57 113l1 2q0 9 10 9l49 -3q11 0 9 -9q-8 -65 -42.5 -114.5t-89.5 -76.5t-123 -27q-93 0 -147.5 51z" />
    <glyph glyph-name="Cacute" unicode="&#x106;" horiz-adv-x="589" 
d="M129.5 42q-54.5 51 -54.5 137q0 22 2 34l33 275q8 65 43 115t90 77.5t122 27.5q94 0 149 -50t55 -134q0 -10 -2 -32q-2 -11 -11 -11l-50 -3q-9 0 -9 9l1 3q1 8 1 23q0 61 -37.5 97t-103.5 36q-71 0 -120.5 -43t-58.5 -113l-34 -280q-1 -8 -1 -23q0 -61 38 -97t103 -36
q72 0 121 43t57 113l1 2q0 9 10 9l49 -3q11 0 9 -9q-8 -65 -42.5 -114.5t-89.5 -76.5t-123 -27q-93 0 -147.5 51zM334 769.5q-2 3.5 2 8.5l72 109q3 7 12 7h44q6 0 7 -3.5t-3 -8.5l-79 -109q-7 -7 -13 -7h-35q-5 0 -7 3.5z" />
    <glyph glyph-name="Ccaron" unicode="&#x10c;" horiz-adv-x="589" 
d="M129.5 42q-54.5 51 -54.5 137q0 22 2 34l33 275q8 65 43 115t90 77.5t122 27.5q94 0 149 -50t55 -134q0 -10 -2 -32q-2 -11 -11 -11l-50 -3q-9 0 -9 9l1 3q1 8 1 23q0 61 -37.5 97t-103.5 36q-71 0 -120.5 -43t-58.5 -113l-34 -280q-1 -8 -1 -23q0 -61 38 -97t103 -36
q72 0 121 43t57 113l1 2q0 9 10 9l49 -3q11 0 9 -9q-8 -65 -42.5 -114.5t-89.5 -76.5t-123 -27q-93 0 -147.5 51zM268 887q0 7 9 7h39q10 0 12 -6l49 -82q1 -1 3 -1t3 1l68 82q5 6 13 6h39q6 0 7.5 -3.5t-2.5 -8.5l-92 -108q-5 -6 -14 -6h-56q-8 0 -12 6l-64 108z" />
    <glyph glyph-name="Ccedilla" unicode="&#xc7;" horiz-adv-x="589" 
d="M563 483q-3 -2 -7 -2l-50 -3q-9 0 -9 9l1 3q1 8 1 23q0 61 -37.5 97t-103.5 36q-71 0 -120.5 -43t-58.5 -113l-34 -280q-1 -8 -1 -23q0 -61 38 -97t103 -36q72 0 121 43t57 113l1 2q0 9 10 9l49 -3q11 0 9 -9q-8 -65 -42.5 -114.5t-89.5 -76.5t-123 -27q-2 0 3 -5
q36 -36 36 -79q0 -18 -6 -34q-11 -32 -36 -46t-56 -14q-20 0 -40 5q-8 3 -5 12l7 23q3 10 13 7q11 -3 20 -3q22 0 38 13.5t16 40.5q0 22 -13.5 44t-35.5 41q-1 2 -2 2t-2 1q-66 16 -102.5 63t-36.5 117q0 10 2 34l33 275q8 65 43 115t90 77.5t122 27.5q94 0 149 -50t55 -134
q0 -10 -2 -32l-1 -5q0 -2 -3 -4z" />
    <glyph glyph-name="Ccircumflex" unicode="&#x108;" horiz-adv-x="589" 
d="M129.5 42q-54.5 51 -54.5 137q0 22 2 34l33 275q8 65 43 115t90 77.5t122 27.5q94 0 149 -50t55 -134q0 -10 -2 -32q-2 -11 -11 -11l-50 -3q-9 0 -9 9l1 3q1 8 1 23q0 61 -37.5 97t-103.5 36q-71 0 -120.5 -43t-58.5 -113l-34 -280q-1 -8 -1 -23q0 -61 38 -97t103 -36
q72 0 121 43t57 113l1 2q0 9 10 9l49 -3q11 0 9 -9q-8 -65 -42.5 -114.5t-89.5 -76.5t-123 -27q-93 0 -147.5 51zM252.5 771.5q-1.5 3.5 2.5 8.5l91 108q5 6 14 6h56q8 0 12 -6l65 -108l2 -5q0 -7 -9 -7h-39q-10 0 -12 6l-48 82q-1 2 -3 2t-3 -2l-69 -82q-5 -6 -13 -6h-39
q-6 0 -7.5 3.5z" />
    <glyph glyph-name="Cdotaccent" unicode="&#x10a;" horiz-adv-x="589" 
d="M129.5 42q-54.5 51 -54.5 137q0 22 2 34l33 275q8 65 43 115t90 77.5t122 27.5q94 0 149 -50t55 -134q0 -10 -2 -32q-2 -11 -11 -11l-50 -3q-9 0 -9 9l1 3q1 8 1 23q0 61 -37.5 97t-103.5 36q-71 0 -120.5 -43t-58.5 -113l-34 -280q-1 -8 -1 -23q0 -61 38 -97t103 -36
q72 0 121 43t57 113l1 2q0 9 10 9l49 -3q11 0 9 -9q-8 -65 -42.5 -114.5t-89.5 -76.5t-123 -27q-93 0 -147.5 51zM341 805.5q-13 13.5 -13 34.5q0 28 18 46t44 18q21 0 34.5 -13t13.5 -35q0 -27 -18 -45.5t-44 -18.5q-22 0 -35 13.5z" />
    <glyph glyph-name="D" unicode="D" horiz-adv-x="599" 
d="M74.5 3q-2.5 3 -1.5 7l84 680q0 4 3 7t7 3h229q88 0 138 -43.5t50 -119.5q0 -10 -2 -30l-38 -314q-11 -89 -74.5 -141t-159.5 -52h-229q-4 0 -6.5 3zM152 62h169q63 0 105 38t50 102l36 295q2 18 2 25q0 54 -32 85t-90 31h-169q-3 0 -5 -4l-69 -568q0 -4 3 -4z" />
    <glyph glyph-name="Eth" unicode="&#xd0;" horiz-adv-x="663" 
d="M597 656.5q50 -43.5 50 -119.5q0 -10 -2 -30l-38 -314q-11 -89 -74.5 -141t-159.5 -52h-228q-5 0 -7.5 3t-1.5 7l40 324q0 4 -4 4h-49q-10 0 -8 10l3 32q1 4 4 7t7 3h50q4 0 4 4l37 296q0 4 3 7t7 3h229q88 0 138 -43.5zM575 497q2 18 2 25q0 54 -32 85t-90 31h-169
q-4 0 -4 -4l-30 -240q0 -2 1 -3t2 -1h116q10 0 8 -10l-4 -32q0 -4 -3 -7t-7 -3h-116q-4 0 -4 -4l-33 -268q0 -4 3 -4h170q62 0 104 38t50 102z" />
    <glyph glyph-name="Dcaron" unicode="&#x10e;" horiz-adv-x="599" 
d="M74.5 3q-2.5 3 -1.5 7l84 680q0 4 3 7t7 3h229q88 0 138 -43.5t50 -119.5q0 -10 -2 -30l-38 -314q-11 -89 -74.5 -141t-159.5 -52h-229q-4 0 -6.5 3zM152 62h169q63 0 105 38t50 102l36 295q2 18 2 25q0 54 -32 85t-90 31h-169q-3 0 -5 -4l-69 -568q0 -4 3 -4zM271 885
q0 7 9 7h39q10 0 12 -6l49 -82q1 -1 3 -1t3 1l68 82q5 6 13 6h39q6 0 7.5 -3.5t-2.5 -8.5l-92 -108q-5 -6 -14 -6h-56q-8 0 -12 6l-64 108z" />
    <glyph glyph-name="Dcroat" unicode="&#x110;" horiz-adv-x="663" 
d="M597 656.5q50 -43.5 50 -119.5q0 -10 -2 -30l-38 -314q-11 -89 -74.5 -141t-159.5 -52h-228q-5 0 -7.5 3t-1.5 7l40 324q0 4 -4 4h-49q-10 0 -8 10l3 32q1 4 4 7t7 3h50q4 0 4 4l37 296q0 4 3 7t7 3h229q88 0 138 -43.5zM575 497q2 18 2 25q0 54 -32 85t-90 31h-169
q-4 0 -4 -4l-30 -240q0 -2 1 -3t2 -1h116q10 0 8 -10l-4 -32q0 -4 -3 -7t-7 -3h-116q-4 0 -4 -4l-33 -268q0 -4 3 -4h170q62 0 104 38t50 102z" />
    <glyph glyph-name="E" unicode="E" horiz-adv-x="587" 
d="M580 638h-357q-3 0 -5 -4l-30 -247q0 -4 4 -4h250q10 0 8 -10l-5 -42q-2 -10 -11 -10h-250q-4 0 -4 -4l-31 -251q0 -4 3 -4h357q9 0 9 -10l-6 -42q0 -4 -3 -7t-8 -3h-420q-4 0 -6.5 3t-1.5 7l84 680q0 4 3 7t7 3h420q5 0 7.5 -3t1.5 -7l-5 -42q-2 -10 -11 -10z" />
    <glyph glyph-name="Eacute" unicode="&#xc9;" horiz-adv-x="587" 
d="M580 638h-357q-3 0 -5 -4l-30 -247q0 -4 4 -4h250q10 0 8 -10l-5 -42q-2 -10 -11 -10h-250q-4 0 -4 -4l-31 -251q0 -4 3 -4h357q9 0 9 -10l-6 -42q0 -4 -3 -7t-8 -3h-420q-4 0 -6.5 3t-1.5 7l84 680q0 4 3 7t7 3h420q5 0 7.5 -3t1.5 -7l-5 -42q-2 -10 -11 -10zM342 769.5
q-2 3.5 2 8.5l72 109q3 7 12 7h44q6 0 7 -3.5t-3 -8.5l-79 -109q-7 -7 -13 -7h-35q-5 0 -7 3.5z" />
    <glyph glyph-name="Ecaron" unicode="&#x11a;" horiz-adv-x="587" 
d="M580 638h-357q-3 0 -5 -4l-30 -247q0 -4 4 -4h250q10 0 8 -10l-5 -42q-2 -10 -11 -10h-250q-4 0 -4 -4l-31 -251q0 -4 3 -4h357q9 0 9 -10l-6 -42q0 -4 -3 -7t-8 -3h-420q-4 0 -6.5 3t-1.5 7l84 680q0 4 3 7t7 3h420q5 0 7.5 -3t1.5 -7l-5 -42q-2 -10 -11 -10zM277 887
q0 7 9 7h39q10 0 12 -6l49 -82q1 -1 3 -1t3 1l68 82q5 6 13 6h39q6 0 7.5 -3.5t-2.5 -8.5l-92 -108q-5 -6 -14 -6h-56q-8 0 -12 6l-64 108z" />
    <glyph glyph-name="uni0228" unicode="&#x228;" horiz-adv-x="587" 
d="M580 638h-357q-3 0 -5 -4l-30 -247q0 -4 4 -4h250q10 0 8 -10l-5 -42q-2 -10 -11 -10h-250q-4 0 -4 -4l-31 -251q0 -4 3 -4h357q9 0 9 -10l-6 -42q0 -4 -3 -7t-8 -3h-175q-2 0 -3 -1.5t0 -3.5q38 -38 38 -80q0 -18 -6 -33q-11 -32 -36.5 -46t-56.5 -14q-19 0 -39 5
q-8 3 -5 12l7 23q1 4 4.5 6.5t7.5 0.5q11 -3 21 -3q18 0 31.5 9t19.5 27q3 9 3 18q0 38 -43 78q0 2 -4 2h-184q-4 0 -6.5 3t-1.5 7l84 680q0 4 3 7t7 3h420q5 0 7.5 -3t1.5 -7l-5 -42q-2 -10 -11 -10z" />
    <glyph glyph-name="Ecircumflex" unicode="&#xca;" horiz-adv-x="587" 
d="M580 638h-357q-3 0 -5 -4l-30 -247q0 -4 4 -4h250q10 0 8 -10l-5 -42q-2 -10 -11 -10h-250q-4 0 -4 -4l-31 -251q0 -4 3 -4h357q9 0 9 -10l-6 -42q0 -4 -3 -7t-8 -3h-420q-4 0 -6.5 3t-1.5 7l84 680q0 4 3 7t7 3h420q5 0 7.5 -3t1.5 -7l-5 -42q-2 -10 -11 -10z
M261.5 771.5q-1.5 3.5 2.5 8.5l91 108q5 6 14 6h56q8 0 12 -6l65 -108l2 -5q0 -7 -9 -7h-39q-10 0 -12 6l-48 82q-1 2 -3 2t-3 -2l-69 -82q-5 -6 -13 -6h-39q-6 0 -7.5 3.5z" />
    <glyph glyph-name="uni1EBE" unicode="&#x1ebe;" horiz-adv-x="587" 
d="M580 638h-357q-3 0 -5 -4l-30 -247q0 -4 4 -4h250q10 0 8 -10l-5 -42q-2 -10 -11 -10h-250q-4 0 -4 -4l-31 -251q0 -4 3 -4h357q9 0 9 -10l-6 -42q0 -4 -3 -7t-8 -3h-420q-4 0 -6.5 3t-1.5 7l84 680q0 4 3 7t7 3h420q5 0 7.5 -3t1.5 -7l-5 -42q-2 -10 -11 -10z
M261.5 771.5q-1.5 3.5 2.5 8.5l91 108q5 6 14 6h56q8 0 12 -6l65 -108l2 -5q0 -7 -9 -7h-39q-10 0 -12 6l-48 82q-1 2 -3 2t-3 -2l-69 -82q-5 -6 -13 -6h-39q-6 0 -7.5 3.5zM512 845.5q-2 3.5 2 8.5l72 109q3 7 12 7h44q6 0 7 -3.5t-3 -8.5l-79 -109q-7 -7 -13 -7h-35
q-5 0 -7 3.5z" />
    <glyph glyph-name="uni1EC6" unicode="&#x1ec6;" horiz-adv-x="587" 
d="M580 638h-357q-3 0 -5 -4l-30 -247q0 -4 4 -4h250q10 0 8 -10l-5 -42q-2 -10 -11 -10h-250q-4 0 -4 -4l-31 -251q0 -4 3 -4h357q9 0 9 -10l-6 -42q0 -4 -3 -7t-8 -3h-420q-4 0 -6.5 3t-1.5 7l84 680q0 4 3 7t7 3h420q5 0 7.5 -3t1.5 -7l-5 -42q-2 -10 -11 -10zM237 -171
q-12 13 -12 34q0 25 17 42t41 17q20 0 33 -12.5t13 -32.5q0 -25 -17.5 -43t-41.5 -18q-21 0 -33 13zM261.5 771.5q-1.5 3.5 2.5 8.5l91 108q5 6 14 6h56q8 0 12 -6l65 -108l2 -5q0 -7 -9 -7h-39q-10 0 -12 6l-48 82q-1 2 -3 2t-3 -2l-69 -82q-5 -6 -13 -6h-39q-6 0 -7.5 3.5
z" />
    <glyph glyph-name="uni1EC0" unicode="&#x1ec0;" horiz-adv-x="587" 
d="M580 638h-357q-3 0 -5 -4l-30 -247q0 -4 4 -4h250q10 0 8 -10l-5 -42q-2 -10 -11 -10h-250q-4 0 -4 -4l-31 -251q0 -4 3 -4h357q9 0 9 -10l-6 -42q0 -4 -3 -7t-8 -3h-420q-4 0 -6.5 3t-1.5 7l84 680q0 4 3 7t7 3h420q5 0 7.5 -3t1.5 -7l-5 -42q-2 -10 -11 -10z
M261.5 771.5q-1.5 3.5 2.5 8.5l91 108q5 6 14 6h56q8 0 12 -6l65 -108l2 -5q0 -7 -9 -7h-39q-10 0 -12 6l-48 82q-1 2 -3 2t-3 -2l-69 -82q-5 -6 -13 -6h-39q-6 0 -7.5 3.5zM558 889q0 -7 -9 -7h-35q-6 0 -11 7l-52 109q-1 2 -1 6q0 6 8 6h44q9 0 10 -7l45 -109q1 -2 1 -5z
" />
    <glyph glyph-name="uni1EC2" unicode="&#x1ec2;" horiz-adv-x="587" 
d="M580 638h-357q-3 0 -5 -4l-30 -247q0 -4 4 -4h250q10 0 8 -10l-5 -42q-2 -10 -11 -10h-250q-4 0 -4 -4l-31 -251q0 -4 3 -4h357q9 0 9 -10l-6 -42q0 -4 -3 -7t-8 -3h-420q-4 0 -6.5 3t-1.5 7l84 680q0 4 3 7t7 3h420q5 0 7.5 -3t1.5 -7l-5 -42q-2 -10 -11 -10z
M261.5 771.5q-1.5 3.5 2.5 8.5l91 108q5 6 14 6h56q8 0 12 -6l65 -108l2 -5q0 -7 -9 -7h-39q-10 0 -12 6l-48 82q-1 2 -3 2t-3 -2l-69 -82q-5 -6 -13 -6h-39q-6 0 -7.5 3.5zM494.5 872.5q-1.5 3.5 0.5 7.5q8 15 16.5 24.5t22.5 22.5t21 23t9 25q2 14 -9 25t-27 11
q-17 0 -28.5 -7.5t-28.5 -28.5q-8 -8 -14 -2l-14 10q-7 6 -1 14q22 29 42 41.5t51 12.5q33 0 53 -18.5t20 -47.5q0 -26 -11.5 -43t-34.5 -37q-24 -22 -31 -35q-6 -7 -14 -6l-17 4q-4 1 -5.5 4.5z" />
    <glyph glyph-name="uni1EC4" unicode="&#x1ec4;" horiz-adv-x="587" 
d="M580 638h-357q-3 0 -5 -4l-30 -247q0 -4 4 -4h250q10 0 8 -10l-5 -42q-2 -10 -11 -10h-250q-4 0 -4 -4l-31 -251q0 -4 3 -4h357q9 0 9 -10l-6 -42q0 -4 -3 -7t-8 -3h-420q-4 0 -6.5 3t-1.5 7l84 680q0 4 3 7t7 3h420q5 0 7.5 -3t1.5 -7l-5 -42q-2 -10 -11 -10z
M261.5 771.5q-1.5 3.5 2.5 8.5l91 108q5 6 14 6h56q8 0 12 -6l65 -108l2 -5q0 -7 -9 -7h-39q-10 0 -12 6l-48 82q-1 2 -3 2t-3 -2l-69 -82q-5 -6 -13 -6h-39q-6 0 -7.5 3.5zM431 931q-13 6 -26 16q-16 10 -25.5 14.5t-20.5 4.5q-17 0 -30.5 -5.5t-26.5 -19.5q-6 -9 -13 -2
l-16 18q-5 7 0 14q37 49 90 49q15 0 27 -5t21 -10.5t12 -7.5t12.5 -8t17.5 -9t16 -3q31 0 55 28q7 10 13 2l16 -17q3 -3 3 -7t-4 -8q-17 -24 -41 -37t-49 -13q-18 0 -31 6z" />
    <glyph glyph-name="Edieresis" unicode="&#xcb;" horiz-adv-x="587" 
d="M580 638h-357q-3 0 -5 -4l-30 -247q0 -4 4 -4h250q10 0 8 -10l-5 -42q-2 -10 -11 -10h-250q-4 0 -4 -4l-31 -251q0 -4 3 -4h357q9 0 9 -10l-6 -42q0 -4 -3 -7t-8 -3h-420q-4 0 -6.5 3t-1.5 7l84 680q0 4 3 7t7 3h420q5 0 7.5 -3t1.5 -7l-5 -42q-2 -10 -11 -10zM433 808.5
q-13 13.5 -13 34.5q0 28 18 46t44 18q21 0 34.5 -13t13.5 -35q0 -27 -18 -45.5t-44 -18.5q-22 0 -35 13.5zM267 808.5q-13 13.5 -13 34.5q0 28 18 46t44 18q21 0 34.5 -13t13.5 -35q0 -27 -18 -45.5t-44 -18.5q-22 0 -35 13.5z" />
    <glyph glyph-name="Edotaccent" unicode="&#x116;" horiz-adv-x="587" 
d="M580 638h-357q-3 0 -5 -4l-30 -247q0 -4 4 -4h250q10 0 8 -10l-5 -42q-2 -10 -11 -10h-250q-4 0 -4 -4l-31 -251q0 -4 3 -4h357q9 0 9 -10l-6 -42q0 -4 -3 -7t-8 -3h-420q-4 0 -6.5 3t-1.5 7l84 680q0 4 3 7t7 3h420q5 0 7.5 -3t1.5 -7l-5 -42q-2 -10 -11 -10zM349 805.5
q-13 13.5 -13 34.5q0 28 18 46t44 18q21 0 34.5 -13t13.5 -35q0 -27 -18 -45.5t-44 -18.5q-22 0 -35 13.5z" />
    <glyph glyph-name="uni1EB8" unicode="&#x1eb8;" horiz-adv-x="587" 
d="M580 638h-357q-3 0 -5 -4l-30 -247q0 -4 4 -4h250q10 0 8 -10l-5 -42q-2 -10 -11 -10h-250q-4 0 -4 -4l-31 -251q0 -4 3 -4h357q9 0 9 -10l-6 -42q0 -4 -3 -7t-8 -3h-420q-4 0 -6.5 3t-1.5 7l84 680q0 4 3 7t7 3h420q5 0 7.5 -3t1.5 -7l-5 -42q-2 -10 -11 -10zM237 -171
q-12 13 -12 34q0 25 17 42t41 17q20 0 33 -12.5t13 -32.5q0 -25 -17.5 -43t-41.5 -18q-21 0 -33 13z" />
    <glyph glyph-name="Egrave" unicode="&#xc8;" horiz-adv-x="587" 
d="M580 638h-357q-3 0 -5 -4l-30 -247q0 -4 4 -4h250q10 0 8 -10l-5 -42q-2 -10 -11 -10h-250q-4 0 -4 -4l-31 -251q0 -4 3 -4h357q9 0 9 -10l-6 -42q0 -4 -3 -7t-8 -3h-420q-4 0 -6.5 3t-1.5 7l84 680q0 4 3 7t7 3h420q5 0 7.5 -3t1.5 -7l-5 -42q-2 -10 -11 -10zM410 773
q0 -7 -9 -7h-35q-6 0 -11 7l-52 109q-1 2 -1 6q0 6 8 6h44q9 0 10 -7l45 -109q1 -2 1 -5z" />
    <glyph glyph-name="uni1EBA" unicode="&#x1eba;" horiz-adv-x="587" 
d="M580 638h-357q-3 0 -5 -4l-30 -247q0 -4 4 -4h250q10 0 8 -10l-5 -42q-2 -10 -11 -10h-250q-4 0 -4 -4l-31 -251q0 -4 3 -4h357q9 0 9 -10l-6 -42q0 -4 -3 -7t-8 -3h-420q-4 0 -6.5 3t-1.5 7l84 680q0 4 3 7t7 3h420q5 0 7.5 -3t1.5 -7l-5 -42q-2 -10 -11 -10z
M366.5 752.5q-1.5 3.5 0.5 7.5q8 15 16.5 24.5t22.5 22.5t21 23t9 25q2 14 -9 25t-27 11q-17 0 -28.5 -7.5t-28.5 -28.5q-8 -8 -14 -2l-14 10q-7 6 -1 14q22 29 42 41.5t51 12.5q33 0 53 -18.5t20 -47.5q0 -26 -11.5 -43t-34.5 -37q-24 -22 -31 -35q-6 -7 -14 -6l-17 4
q-4 1 -5.5 4.5z" />
    <glyph glyph-name="Emacron" unicode="&#x112;" horiz-adv-x="587" 
d="M580 638h-357q-3 0 -5 -4l-30 -247q0 -4 4 -4h250q10 0 8 -10l-5 -42q-2 -10 -11 -10h-250q-4 0 -4 -4l-31 -251q0 -4 3 -4h357q9 0 9 -10l-6 -42q0 -4 -3 -7t-8 -3h-420q-4 0 -6.5 3t-1.5 7l84 680q0 4 3 7t7 3h420q5 0 7.5 -3t1.5 -7l-5 -42q-2 -10 -11 -10zM256 798
l4 31q0 4 3 7t7 3h242q10 0 8 -10l-3 -31q-2 -10 -11 -10h-242q-10 0 -8 10z" />
    <glyph glyph-name="Eogonek" unicode="&#x118;" horiz-adv-x="587" 
d="M580 638h-357q-3 0 -5 -4l-30 -247q0 -4 4 -4h250q10 0 8 -10l-5 -42q-2 -10 -11 -10h-250q-4 0 -4 -4l-31 -251q0 -4 3 -4h357q9 0 9 -10l-6 -42q0 -4 -3 -7t-8 -3h-181q-3 0 -5 -2q-29 -21 -46 -45.5t-17 -47.5q0 -19 12 -29t31 -10q11 0 21 3l3 1q7 0 7 -8l1 -23v-2
q0 -7 -8 -10q-20 -5 -41 -5q-34 0 -56 16.5t-22 54.5q0 56 59 102q3 2 2.5 3.5t-3.5 1.5h-177q-4 0 -6.5 3t-1.5 7l84 680q0 4 3 7t7 3h420q5 0 7.5 -3t1.5 -7l-5 -42q-2 -10 -11 -10z" />
    <glyph glyph-name="uni1EBC" unicode="&#x1ebc;" horiz-adv-x="587" 
d="M580 638h-357q-3 0 -5 -4l-30 -247q0 -4 4 -4h250q10 0 8 -10l-5 -42q-2 -10 -11 -10h-250q-4 0 -4 -4l-31 -251q0 -4 3 -4h357q9 0 9 -10l-6 -42q0 -4 -3 -7t-8 -3h-420q-4 0 -6.5 3t-1.5 7l84 680q0 4 3 7t7 3h420q5 0 7.5 -3t1.5 -7l-5 -42q-2 -10 -11 -10zM415 803
q-13 6 -26 16q-16 10 -25.5 14.5t-20.5 4.5q-17 0 -30.5 -5.5t-26.5 -19.5q-6 -9 -13 -2l-16 18q-5 7 0 14q37 49 90 49q15 0 27 -5t21 -10.5t12 -7.5t12.5 -8t17.5 -9t16 -3q31 0 55 28q7 10 13 2l16 -17q3 -3 3 -7t-4 -8q-17 -24 -41 -37t-49 -13q-18 0 -31 6z" />
    <glyph glyph-name="F" unicode="F" horiz-adv-x="551" 
d="M579 638h-356q-3 0 -5 -4l-30 -247q0 -4 4 -4h249q10 0 8 -10l-5 -42q-2 -10 -11 -10h-249q-4 0 -4 -4l-38 -307q-2 -10 -11 -10h-50q-4 0 -6.5 3t-1.5 7l84 680q0 4 3 7t7 3h419q5 0 7.5 -3t1.5 -7l-5 -42q-2 -10 -11 -10z" />
    <glyph glyph-name="G" unicode="G" horiz-adv-x="595" 
d="M129 43.5q-55 51.5 -55 136.5q0 10 2 32l34 276q8 65 43 115t90 77.5t122 27.5q93 0 148 -50.5t55 -132.5q0 -9 -2 -29l-1 -13q-2 -10 -11 -10h-50q-10 0 -8 10l1 12q1 8 1 22q0 58 -37.5 93.5t-102.5 35.5q-71 0 -120.5 -43t-58.5 -113l-34 -280q-1 -8 -1 -22
q0 -61 39 -97.5t105 -36.5q71 0 118 40t55 107l11 91q1 1 0 2.5t-3 1.5h-143q-4 0 -6.5 3t-1.5 7l5 42q2 10 11 10h206q4 0 6.5 -3t1.5 -7l-16 -129q-13 -107 -82 -167t-173 -60q-93 0 -148 51.5z" />
    <glyph glyph-name="Gbreve" unicode="&#x11e;" horiz-adv-x="595" 
d="M129 43.5q-55 51.5 -55 136.5q0 10 2 32l34 276q8 65 43 115t90 77.5t122 27.5q93 0 148 -50.5t55 -132.5q0 -9 -2 -29l-1 -13q-2 -10 -11 -10h-50q-10 0 -8 10l1 12q1 8 1 22q0 58 -37.5 93.5t-102.5 35.5q-71 0 -120.5 -43t-58.5 -113l-34 -280q-1 -8 -1 -22
q0 -61 39 -97.5t105 -36.5q71 0 118 40t55 107l11 91q1 1 0 2.5t-3 1.5h-143q-4 0 -6.5 3t-1.5 7l5 42q2 10 11 10h206q4 0 6.5 -3t1.5 -7l-16 -129q-13 -107 -82 -167t-173 -60q-93 0 -148 51.5zM292 786.5q-30 28.5 -29 72.5q2 10 11 10h29q9 0 9 -10q1 -26 19 -42.5
t44 -16.5q28 0 50 16.5t28 42.5q3 10 12 10h29q11 0 8 -9q-9 -44 -46 -73t-86 -29q-48 0 -78 28.5z" />
    <glyph glyph-name="Gcircumflex" unicode="&#x11c;" horiz-adv-x="595" 
d="M129 43.5q-55 51.5 -55 136.5q0 10 2 32l34 276q8 65 43 115t90 77.5t122 27.5q93 0 148 -50.5t55 -132.5q0 -9 -2 -29l-1 -13q-2 -10 -11 -10h-50q-10 0 -8 10l1 12q1 8 1 22q0 58 -37.5 93.5t-102.5 35.5q-71 0 -120.5 -43t-58.5 -113l-34 -280q-1 -8 -1 -22
q0 -61 39 -97.5t105 -36.5q71 0 118 40t55 107l11 91q1 1 0 2.5t-3 1.5h-143q-4 0 -6.5 3t-1.5 7l5 42q2 10 11 10h206q4 0 6.5 -3t1.5 -7l-16 -129q-13 -107 -82 -167t-173 -60q-93 0 -148 51.5zM251.5 773.5q-1.5 3.5 2.5 8.5l91 108q5 6 14 6h56q8 0 12 -6l65 -108l2 -5
q0 -7 -9 -7h-39q-10 0 -12 6l-48 82q-1 2 -3 2t-3 -2l-69 -82q-5 -6 -13 -6h-39q-6 0 -7.5 3.5z" />
    <glyph glyph-name="Gdotaccent" unicode="&#x120;" horiz-adv-x="595" 
d="M129 43.5q-55 51.5 -55 136.5q0 10 2 32l34 276q8 65 43 115t90 77.5t122 27.5q93 0 148 -50.5t55 -132.5q0 -9 -2 -29l-1 -13q-2 -10 -11 -10h-50q-10 0 -8 10l1 12q1 8 1 22q0 58 -37.5 93.5t-102.5 35.5q-71 0 -120.5 -43t-58.5 -113l-34 -280q-1 -8 -1 -22
q0 -61 39 -97.5t105 -36.5q71 0 118 40t55 107l11 91q1 1 0 2.5t-3 1.5h-143q-4 0 -6.5 3t-1.5 7l5 42q2 10 11 10h206q4 0 6.5 -3t1.5 -7l-16 -129q-13 -107 -82 -167t-173 -60q-93 0 -148 51.5zM339 807.5q-13 13.5 -13 34.5q0 28 18 46t44 18q21 0 34.5 -13t13.5 -35
q0 -27 -18 -45.5t-44 -18.5q-22 0 -35 13.5z" />
    <glyph glyph-name="H" unicode="H" horiz-adv-x="634" 
d="M546 697q3 3 7 3h50q10 0 8 -10l-83 -680q-2 -10 -11 -10h-49q-5 0 -7.5 3t-1.5 7l38 307q0 4 -4 4h-309q-4 0 -4 -4l-38 -307q-2 -10 -11 -10h-50q-4 0 -6.5 3t-1.5 7l84 680q0 4 3 7t7 3h50q10 0 8 -10l-37 -303q0 -4 4 -4h309q4 0 4 4l38 303q0 4 3 7z" />
    <glyph glyph-name="Hbar" unicode="&#x126;" horiz-adv-x="634" 
d="M653 550l-4 -32q0 -4 -3 -7t-7 -3h-46q-4 0 -4 -4l-61 -494q-2 -10 -11 -10h-49q-5 0 -7.5 3t-1.5 7l38 307q0 4 -4 4h-309q-4 0 -4 -4l-38 -307q-2 -10 -11 -10h-50q-4 0 -6.5 3t-1.5 7l61 494q0 4 -4 4h-45q-5 0 -7.5 3t-1.5 7l4 32q2 10 11 10h46q4 0 4 4l16 126
q0 4 3 7t7 3h50q10 0 8 -10l-15 -126q0 -4 3 -4h310q4 0 4 4l16 126q0 4 3 7t7 3h50q10 0 8 -10l-15 -126q0 -4 3 -4h46q10 0 8 -10zM505 387l15 117q0 4 -4 4h-309q-4 0 -4 -4l-15 -117q0 -4 4 -4h309q4 0 4 4z" />
    <glyph glyph-name="Hcircumflex" unicode="&#x124;" horiz-adv-x="634" 
d="M546 697q3 3 7 3h50q10 0 8 -10l-83 -680q-2 -10 -11 -10h-49q-5 0 -7.5 3t-1.5 7l38 307q0 4 -4 4h-309q-4 0 -4 -4l-38 -307q-2 -10 -11 -10h-50q-4 0 -6.5 3t-1.5 7l84 680q0 4 3 7t7 3h50q10 0 8 -10l-37 -303q0 -4 4 -4h309q4 0 4 4l38 303q0 4 3 7zM273.5 772.5
q-1.5 3.5 2.5 8.5l91 108q5 6 14 6h56q8 0 12 -6l65 -108l2 -5q0 -7 -9 -7h-39q-10 0 -12 6l-48 82q-1 2 -3 2t-3 -2l-69 -82q-5 -6 -13 -6h-39q-6 0 -7.5 3.5z" />
    <glyph glyph-name="I" unicode="I" horiz-adv-x="251" 
d="M74.5 3q-2.5 3 -1.5 7l84 680q0 4 3 7t7 3h50q10 0 8 -10l-83 -680q-2 -10 -11 -10h-50q-4 0 -6.5 3z" />
    <glyph glyph-name="Iacute" unicode="&#xcd;" horiz-adv-x="251" 
d="M74.5 3q-2.5 3 -1.5 7l84 680q0 4 3 7t7 3h50q10 0 8 -10l-83 -680q-2 -10 -11 -10h-50q-4 0 -6.5 3zM161 769.5q-2 3.5 2 8.5l72 109q3 7 12 7h44q6 0 7 -3.5t-3 -8.5l-79 -109q-7 -7 -13 -7h-35q-5 0 -7 3.5z" />
    <glyph glyph-name="Icircumflex" unicode="&#xce;" horiz-adv-x="251" 
d="M74.5 3q-2.5 3 -1.5 7l84 680q0 4 3 7t7 3h50q10 0 8 -10l-83 -680q-2 -10 -11 -10h-50q-4 0 -6.5 3zM79.5 771.5q-1.5 3.5 2.5 8.5l91 108q5 6 14 6h56q8 0 12 -6l65 -108l2 -5q0 -7 -9 -7h-39q-10 0 -12 6l-48 82q-1 2 -3 2t-3 -2l-69 -82q-5 -6 -13 -6h-39
q-6 0 -7.5 3.5z" />
    <glyph glyph-name="Idieresis" unicode="&#xcf;" horiz-adv-x="251" 
d="M74.5 3q-2.5 3 -1.5 7l84 680q0 4 3 7t7 3h50q10 0 8 -10l-83 -680q-2 -10 -11 -10h-50q-4 0 -6.5 3zM252 808.5q-13 13.5 -13 34.5q0 28 18 46t44 18q21 0 34.5 -13t13.5 -35q0 -27 -18 -45.5t-44 -18.5q-22 0 -35 13.5zM86 808.5q-13 13.5 -13 34.5q0 28 18 46t44 18
q21 0 34.5 -13t13.5 -35q0 -27 -18 -45.5t-44 -18.5q-22 0 -35 13.5z" />
    <glyph glyph-name="Idotaccent" unicode="&#x130;" horiz-adv-x="251" 
d="M74.5 3q-2.5 3 -1.5 7l84 680q0 4 3 7t7 3h50q10 0 8 -10l-83 -680q-2 -10 -11 -10h-50q-4 0 -6.5 3zM168 805.5q-13 13.5 -13 34.5q0 28 18 46t44 18q21 0 34.5 -13t13.5 -35q0 -27 -18 -45.5t-44 -18.5q-22 0 -35 13.5z" />
    <glyph glyph-name="uni1ECA" unicode="&#x1eca;" horiz-adv-x="251" 
d="M74.5 3q-2.5 3 -1.5 7l84 680q0 4 3 7t7 3h50q10 0 8 -10l-83 -680q-2 -10 -11 -10h-50q-4 0 -6.5 3zM51 -171q-12 13 -12 34q0 25 17 42t41 17q20 0 33 -12.5t13 -32.5q0 -25 -17.5 -43t-41.5 -18q-21 0 -33 13z" />
    <glyph glyph-name="Igrave" unicode="&#xcc;" horiz-adv-x="251" 
d="M74.5 3q-2.5 3 -1.5 7l84 680q0 4 3 7t7 3h50q10 0 8 -10l-83 -680q-2 -10 -11 -10h-50q-4 0 -6.5 3zM229 773q0 -7 -9 -7h-35q-6 0 -11 7l-52 109q-1 2 -1 6q0 6 8 6h44q9 0 10 -7l45 -109q1 -2 1 -5z" />
    <glyph glyph-name="uni1EC8" unicode="&#x1ec8;" horiz-adv-x="251" 
d="M74.5 3q-2.5 3 -1.5 7l84 680q0 4 3 7t7 3h50q10 0 8 -10l-83 -680q-2 -10 -11 -10h-50q-4 0 -6.5 3zM184.5 752.5q-1.5 3.5 0.5 7.5q8 15 16.5 24.5t22.5 22.5t21 23t9 25q2 14 -9 25t-27 11q-17 0 -28.5 -7.5t-28.5 -28.5q-8 -8 -14 -2l-14 10q-7 6 -1 14
q22 29 42 41.5t51 12.5q33 0 53 -18.5t20 -47.5q0 -26 -11.5 -43t-34.5 -37q-24 -22 -31 -35q-6 -7 -14 -6l-17 4q-4 1 -5.5 4.5z" />
    <glyph glyph-name="Imacron" unicode="&#x12a;" horiz-adv-x="251" 
d="M74.5 3q-2.5 3 -1.5 7l84 680q0 4 3 7t7 3h50q10 0 8 -10l-83 -680q-2 -10 -11 -10h-50q-4 0 -6.5 3zM75 798l4 31q0 4 3 7t7 3h242q10 0 8 -10l-3 -31q-2 -10 -11 -10h-242q-10 0 -8 10z" />
    <glyph glyph-name="Iogonek" unicode="&#x12e;" horiz-adv-x="228" 
d="M63.5 3q-2.5 3 -1.5 7l84 680q0 4 3 7t7 3h50q10 0 8 -10l-83 -680q-2 -10 -11 -10h-50q-4 0 -6.5 3zM121 -181q-20 -5 -41 -5q-34 0 -56 16.5t-22 55.5q0 57 70 110q7 4 13 4h27q7 0 7 -5q0 -3 -5 -7q-29 -23 -45.5 -47t-14.5 -47q1 -18 12.5 -27t29.5 -9q10 0 22 3l3 1
q6 0 8 -9v-22q0 -9 -8 -12z" />
    <glyph glyph-name="Itilde" unicode="&#x128;" horiz-adv-x="251" 
d="M74.5 3q-2.5 3 -1.5 7l84 680q0 4 3 7t7 3h50q10 0 8 -10l-83 -680q-2 -10 -11 -10h-50q-4 0 -6.5 3zM234 803q-13 6 -26 16q-16 10 -25.5 14.5t-20.5 4.5q-17 0 -30.5 -5.5t-26.5 -19.5q-6 -9 -13 -2l-16 18q-5 7 0 14q37 49 90 49q15 0 27 -5t21 -10.5t12 -7.5t12.5 -8
t17.5 -9t16 -3q31 0 55 28q7 10 13 2l16 -17q3 -3 3 -7t-4 -8q-17 -24 -41 -37t-49 -13q-18 0 -31 6z" />
    <glyph glyph-name="J" unicode="J" horiz-adv-x="560" 
d="M84 40.5q-53 48.5 -53 130.5q0 10 2 30l10 76q0 4 3 7t8 3h49q9 0 9 -10l-10 -76q-1 -8 -1 -23q0 -57 36 -90.5t99 -33.5q68 0 114.5 40.5t54.5 106.5l60 489q2 10 11 10h49q5 0 7.5 -3t1.5 -7l-60 -489q-8 -62 -41.5 -109.5t-86.5 -73.5t-118 -26q-91 0 -144 48.5z" />
    <glyph glyph-name="Jcircumflex" unicode="&#x134;" horiz-adv-x="560" 
d="M84 40.5q-53 48.5 -53 130.5q0 10 2 30l10 76q0 4 3 7t8 3h49q9 0 9 -10l-10 -76q-1 -8 -1 -23q0 -57 36 -90.5t99 -33.5q68 0 114.5 40.5t54.5 106.5l60 489q2 10 11 10h49q5 0 7.5 -3t1.5 -7l-60 -489q-8 -62 -41.5 -109.5t-86.5 -73.5t-118 -26q-91 0 -144 48.5z
M389.5 772.5q-1.5 3.5 2.5 8.5l91 108q5 6 14 6h56q8 0 12 -6l65 -108l2 -5q0 -7 -9 -7h-39q-10 0 -12 6l-48 82q-1 2 -3 2t-3 -2l-69 -82q-5 -6 -13 -6h-39q-6 0 -7.5 3.5z" />
    <glyph glyph-name="K" unicode="K" horiz-adv-x="592" 
d="M74.5 3q-2.5 3 -1.5 7l84 680q0 4 3 7t7 3h50q10 0 8 -10l-41 -339q-1 -2 1 -3t3 1l349 346q5 5 13 5h56q7 0 7 -5q0 -3 -4 -7l-271 -277q-3 -2 -1 -6l210 -393q1 -1 1 -4t-3 -5.5t-7 -2.5h-56q-9 0 -11 6l-187 348q-2 4 -6 1l-104 -101q-3 -3 -3 -5l-29 -239
q-2 -10 -11 -10h-50q-4 0 -6.5 3z" />
    <glyph glyph-name="L" unicode="L" horiz-adv-x="551" 
d="M74.5 3q-2.5 3 -1.5 7l84 680q0 4 3 7t7 3h50q10 0 8 -10l-76 -624q0 -4 3 -4h343q4 0 6.5 -3t1.5 -7l-5 -42q-2 -10 -11 -10h-406q-4 0 -6.5 3z" />
    <glyph glyph-name="Lacute" unicode="&#x139;" horiz-adv-x="551" 
d="M74.5 3q-2.5 3 -1.5 7l84 680q0 4 3 7t7 3h50q10 0 8 -10l-76 -624q0 -4 3 -4h343q4 0 6.5 -3t1.5 -7l-5 -42q-2 -10 -11 -10h-406q-4 0 -6.5 3zM161 769.5q-2 3.5 2 8.5l72 109q3 7 12 7h44q6 0 7 -3.5t-3 -8.5l-79 -109q-7 -7 -13 -7h-35q-5 0 -7 3.5z" />
    <glyph glyph-name="Lcaron" unicode="&#x13d;" horiz-adv-x="551" 
d="M74.5 3q-2.5 3 -1.5 7l84 680q0 4 3 7t7 3h50q10 0 8 -10l-76 -624q0 -4 3 -4h343q4 0 6.5 -3t1.5 -7l-5 -42q-2 -10 -11 -10h-406q-4 0 -6.5 3zM300 575.5q-2 3.5 2 8.5l72 109q3 7 12 7h44q6 0 7 -3.5t-3 -8.5l-79 -109q-7 -7 -13 -7h-35q-5 0 -7 3.5z" />
    <glyph glyph-name="uni013B" unicode="&#x13b;" horiz-adv-x="551" 
d="M74.5 3q-2.5 3 -1.5 7l84 680q0 4 3 7t7 3h50q10 0 8 -10l-76 -624q0 -4 3 -4h343q4 0 6.5 -3t1.5 -7l-5 -42q-2 -10 -11 -10h-406q-4 0 -6.5 3zM167 -186.5q-2 3.5 2 8.5l72 109q3 7 12 7h44q6 0 7 -3.5t-3 -8.5l-79 -109q-7 -7 -13 -7h-35q-5 0 -7 3.5z" />
    <glyph glyph-name="Lslash" unicode="&#x141;" horiz-adv-x="581" 
d="M182 62h343q4 0 6.5 -3t1.5 -7l-5 -42q-2 -10 -11 -10h-405q-5 0 -7.5 3t-1.5 7l29 236q0 5 -5 2l-108 -76q-2 -2 -6 -2t-7 4l-19 28q-2 4 -2 6q0 6 5 8l149 106q3 2 3 5l45 363q0 4 3 7t7 3h50q10 0 8 -10l-37 -307q-1 -2 0.5 -3t3.5 1l238 169q3 2 7 2t7 -4l19 -29
l2 -5q0 -4 -5 -9l-280 -197q-2 -2 -2 -5l-29 -237q0 -4 3 -4z" />
    <glyph glyph-name="M" unicode="M" horiz-adv-x="694" 
d="M610 700h50q9 0 9 -10l-84 -680q-2 -10 -11 -10h-49q-9 0 -9 10l69 556q0 3 -2 4t-3 -2l-189 -250q-5 -7 -12 -7h-26q-7 0 -10 6l-128 248q-1 3 -3 2t-2 -4l-68 -553q-2 -10 -11 -10h-50q-4 0 -6.5 3t-1.5 7l84 680q0 4 3 7t7 3h51q6 0 11 -6l147 -285q1 -1 3 -1t3 1
l215 284q7 7 13 7z" />
    <glyph glyph-name="N" unicode="N" horiz-adv-x="656" 
d="M572 700h49q5 0 7.5 -3t1.5 -7l-84 -680q0 -4 -3 -7t-8 -3h-48q-6 0 -11 7l-262 555q-1 3 -3 2.5t-2 -3.5l-67 -551q-2 -10 -11 -10h-50q-4 0 -6.5 3t-1.5 7l84 680q0 4 3 7t7 3h49q6 0 11 -7l262 -555q1 -3 3 -2.5t2 3.5l67 551q2 10 11 10z" />
    <glyph glyph-name="Nacute" unicode="&#x143;" horiz-adv-x="656" 
d="M572 700h49q5 0 7.5 -3t1.5 -7l-84 -680q0 -4 -3 -7t-8 -3h-48q-6 0 -11 7l-262 555q-1 3 -3 2.5t-2 -3.5l-67 -551q-2 -10 -11 -10h-50q-4 0 -6.5 3t-1.5 7l84 680q0 4 3 7t7 3h49q6 0 11 -7l262 -555q1 -3 3 -2.5t2 3.5l67 551q2 10 11 10zM362 769.5q-2 3.5 2 8.5
l72 109q3 7 12 7h44q6 0 7 -3.5t-3 -8.5l-79 -109q-7 -7 -13 -7h-35q-5 0 -7 3.5z" />
    <glyph glyph-name="Ncaron" unicode="&#x147;" horiz-adv-x="656" 
d="M572 700h49q5 0 7.5 -3t1.5 -7l-84 -680q0 -4 -3 -7t-8 -3h-48q-6 0 -11 7l-262 555q-1 3 -3 2.5t-2 -3.5l-67 -551q-2 -10 -11 -10h-50q-4 0 -6.5 3t-1.5 7l84 680q0 4 3 7t7 3h49q6 0 11 -7l262 -555q1 -3 3 -2.5t2 3.5l67 551q2 10 11 10zM297 887q0 7 9 7h39
q10 0 12 -6l49 -82q1 -1 3 -1t3 1l68 82q5 6 13 6h39q6 0 7.5 -3.5t-2.5 -8.5l-92 -108q-5 -6 -14 -6h-56q-8 0 -12 6l-64 108z" />
    <glyph glyph-name="Eng" unicode="&#x14a;" horiz-adv-x="656" 
d="M572 700h49q5 0 7.5 -3t1.5 -7l-85 -690q-12 -83 -52 -120t-126 -37q-9 0 -9 10l5 41q2 10 12 10q48 0 71.5 24t30.5 74q0 4 -1 5l-262 555q-1 3 -3 2.5t-2 -3.5l-67 -551q-2 -10 -11 -10h-50q-4 0 -6.5 3t-1.5 7l84 680q0 4 3 7t7 3h49q6 0 11 -7l261 -554q1 -3 3 -2.5
t2 3.5l68 550q2 10 11 10z" />
    <glyph glyph-name="Ntilde" unicode="&#xd1;" horiz-adv-x="656" 
d="M572 700h49q5 0 7.5 -3t1.5 -7l-84 -680q0 -4 -3 -7t-8 -3h-48q-6 0 -11 7l-262 555q-1 3 -3 2.5t-2 -3.5l-67 -551q-2 -10 -11 -10h-50q-4 0 -6.5 3t-1.5 7l84 680q0 4 3 7t7 3h49q6 0 11 -7l262 -555q1 -3 3 -2.5t2 3.5l67 551q2 10 11 10zM435 803q-13 6 -26 16
q-16 10 -25.5 14.5t-20.5 4.5q-17 0 -30.5 -5.5t-26.5 -19.5q-6 -9 -13 -2l-16 18q-5 7 0 14q37 49 90 49q15 0 27 -5t21 -10.5t12 -7.5t12.5 -8t17.5 -9t16 -3q31 0 55 28q7 10 13 2l16 -17q3 -3 3 -7t-4 -8q-17 -24 -41 -37t-49 -13q-18 0 -31 6z" />
    <glyph glyph-name="O" unicode="O" horiz-adv-x="603" 
d="M131 45q-55 53 -55 143q0 24 2 36l31 252q8 69 43.5 121.5t91.5 81.5t124 29q95 0 150.5 -53t55.5 -143q0 -24 -2 -36l-31 -252q-9 -69 -44.5 -121.5t-91.5 -81.5t-125 -29q-94 0 -149 53zM412 99q50 46 59 122l32 256q2 18 2 26q0 66 -38.5 104.5t-105.5 38.5
q-73 0 -123.5 -46.5t-59.5 -122.5l-32 -256q-2 -18 -2 -26q0 -65 39 -103.5t105 -38.5q74 0 124 46z" />
    <glyph glyph-name="Oacute" unicode="&#xd3;" horiz-adv-x="603" 
d="M131 45q-55 53 -55 143q0 24 2 36l31 252q8 69 43.5 121.5t91.5 81.5t124 29q95 0 150.5 -53t55.5 -143q0 -24 -2 -36l-31 -252q-9 -69 -44.5 -121.5t-91.5 -81.5t-125 -29q-94 0 -149 53zM412 99q50 46 59 122l32 256q2 18 2 26q0 66 -38.5 104.5t-105.5 38.5
q-73 0 -123.5 -46.5t-59.5 -122.5l-32 -256q-2 -18 -2 -26q0 -65 39 -103.5t105 -38.5q74 0 124 46zM336 769.5q-2 3.5 2 8.5l72 109q3 7 12 7h44q6 0 7 -3.5t-3 -8.5l-79 -109q-7 -7 -13 -7h-35q-5 0 -7 3.5z" />
    <glyph glyph-name="Ocircumflex" unicode="&#xd4;" horiz-adv-x="603" 
d="M131 45q-55 53 -55 143q0 24 2 36l31 252q8 69 43.5 121.5t91.5 81.5t124 29q95 0 150.5 -53t55.5 -143q0 -24 -2 -36l-31 -252q-9 -69 -44.5 -121.5t-91.5 -81.5t-125 -29q-94 0 -149 53zM412 99q50 46 59 122l32 256q2 18 2 26q0 66 -38.5 104.5t-105.5 38.5
q-73 0 -123.5 -46.5t-59.5 -122.5l-32 -256q-2 -18 -2 -26q0 -65 39 -103.5t105 -38.5q74 0 124 46zM254.5 771.5q-1.5 3.5 2.5 8.5l91 108q5 6 14 6h56q8 0 12 -6l65 -108l2 -5q0 -7 -9 -7h-39q-10 0 -12 6l-48 82q-1 2 -3 2t-3 -2l-69 -82q-5 -6 -13 -6h-39q-6 0 -7.5 3.5
z" />
    <glyph glyph-name="uni1ED0" unicode="&#x1ed0;" horiz-adv-x="603" 
d="M131 45q-55 53 -55 143q0 24 2 36l31 252q8 69 43.5 121.5t91.5 81.5t124 29q95 0 150.5 -53t55.5 -143q0 -24 -2 -36l-31 -252q-9 -69 -44.5 -121.5t-91.5 -81.5t-125 -29q-94 0 -149 53zM412 99q50 46 59 122l32 256q2 18 2 26q0 66 -38.5 104.5t-105.5 38.5
q-73 0 -123.5 -46.5t-59.5 -122.5l-32 -256q-2 -18 -2 -26q0 -65 39 -103.5t105 -38.5q74 0 124 46zM254.5 771.5q-1.5 3.5 2.5 8.5l91 108q5 6 14 6h56q8 0 12 -6l65 -108l2 -5q0 -7 -9 -7h-39q-10 0 -12 6l-48 82q-1 2 -3 2t-3 -2l-69 -82q-5 -6 -13 -6h-39q-6 0 -7.5 3.5
zM505 845.5q-2 3.5 2 8.5l72 109q3 7 12 7h44q6 0 7 -3.5t-3 -8.5l-79 -109q-7 -7 -13 -7h-35q-5 0 -7 3.5z" />
    <glyph glyph-name="uni1ED8" unicode="&#x1ed8;" horiz-adv-x="603" 
d="M131 45q-55 53 -55 143q0 24 2 36l31 252q8 69 43.5 121.5t91.5 81.5t124 29q95 0 150.5 -53t55.5 -143q0 -24 -2 -36l-31 -252q-9 -69 -44.5 -121.5t-91.5 -81.5t-125 -29q-94 0 -149 53zM412 99q50 46 59 122l32 256q2 18 2 26q0 66 -38.5 104.5t-105.5 38.5
q-73 0 -123.5 -46.5t-59.5 -122.5l-32 -256q-2 -18 -2 -26q0 -65 39 -103.5t105 -38.5q74 0 124 46zM227 -171q-12 13 -12 34q0 25 17 42t41 17q20 0 33 -12.5t13 -32.5q0 -25 -17.5 -43t-41.5 -18q-21 0 -33 13zM254.5 771.5q-1.5 3.5 2.5 8.5l91 108q5 6 14 6h56
q8 0 12 -6l65 -108l2 -5q0 -7 -9 -7h-39q-10 0 -12 6l-48 82q-1 2 -3 2t-3 -2l-69 -82q-5 -6 -13 -6h-39q-6 0 -7.5 3.5z" />
    <glyph glyph-name="uni1ED2" unicode="&#x1ed2;" horiz-adv-x="603" 
d="M131 45q-55 53 -55 143q0 24 2 36l31 252q8 69 43.5 121.5t91.5 81.5t124 29q95 0 150.5 -53t55.5 -143q0 -24 -2 -36l-31 -252q-9 -69 -44.5 -121.5t-91.5 -81.5t-125 -29q-94 0 -149 53zM412 99q50 46 59 122l32 256q2 18 2 26q0 66 -38.5 104.5t-105.5 38.5
q-73 0 -123.5 -46.5t-59.5 -122.5l-32 -256q-2 -18 -2 -26q0 -65 39 -103.5t105 -38.5q74 0 124 46zM254.5 771.5q-1.5 3.5 2.5 8.5l91 108q5 6 14 6h56q8 0 12 -6l65 -108l2 -5q0 -7 -9 -7h-39q-10 0 -12 6l-48 82q-1 2 -3 2t-3 -2l-69 -82q-5 -6 -13 -6h-39q-6 0 -7.5 3.5
zM551 889q0 -7 -9 -7h-35q-6 0 -11 7l-52 109q-1 2 -1 6q0 6 8 6h44q9 0 10 -7l45 -109q1 -2 1 -5z" />
    <glyph glyph-name="uni1ED4" unicode="&#x1ed4;" horiz-adv-x="603" 
d="M131 45q-55 53 -55 143q0 24 2 36l31 252q8 69 43.5 121.5t91.5 81.5t124 29q95 0 150.5 -53t55.5 -143q0 -24 -2 -36l-31 -252q-9 -69 -44.5 -121.5t-91.5 -81.5t-125 -29q-94 0 -149 53zM412 99q50 46 59 122l32 256q2 18 2 26q0 66 -38.5 104.5t-105.5 38.5
q-73 0 -123.5 -46.5t-59.5 -122.5l-32 -256q-2 -18 -2 -26q0 -65 39 -103.5t105 -38.5q74 0 124 46zM254.5 771.5q-1.5 3.5 2.5 8.5l91 108q5 6 14 6h56q8 0 12 -6l65 -108l2 -5q0 -7 -9 -7h-39q-10 0 -12 6l-48 82q-1 2 -3 2t-3 -2l-69 -82q-5 -6 -13 -6h-39q-6 0 -7.5 3.5
zM487.5 872.5q-1.5 3.5 0.5 7.5q8 15 16.5 24.5t22.5 22.5t21 23t9 25q2 14 -9 25t-27 11q-17 0 -28.5 -7.5t-28.5 -28.5q-8 -8 -14 -2l-14 10q-7 6 -1 14q22 29 42 41.5t51 12.5q33 0 53 -18.5t20 -47.5q0 -26 -11.5 -43t-34.5 -37q-24 -22 -31 -35q-6 -7 -14 -6l-17 4
q-4 1 -5.5 4.5z" />
    <glyph glyph-name="uni1ED6" unicode="&#x1ed6;" horiz-adv-x="603" 
d="M131 45q-55 53 -55 143q0 24 2 36l31 252q8 69 43.5 121.5t91.5 81.5t124 29q95 0 150.5 -53t55.5 -143q0 -24 -2 -36l-31 -252q-9 -69 -44.5 -121.5t-91.5 -81.5t-125 -29q-94 0 -149 53zM412 99q50 46 59 122l32 256q2 18 2 26q0 66 -38.5 104.5t-105.5 38.5
q-73 0 -123.5 -46.5t-59.5 -122.5l-32 -256q-2 -18 -2 -26q0 -65 39 -103.5t105 -38.5q74 0 124 46zM254.5 771.5q-1.5 3.5 2.5 8.5l91 108q5 6 14 6h56q8 0 12 -6l65 -108l2 -5q0 -7 -9 -7h-39q-10 0 -12 6l-48 82q-1 2 -3 2t-3 -2l-69 -82q-5 -6 -13 -6h-39q-6 0 -7.5 3.5
zM424 931q-13 6 -26 16q-16 10 -25.5 14.5t-20.5 4.5q-17 0 -30.5 -5.5t-26.5 -19.5q-6 -9 -13 -2l-16 18q-5 7 0 14q37 49 90 49q15 0 27 -5t21 -10.5t12 -7.5t12.5 -8t17.5 -9t16 -3q31 0 55 28q7 10 13 2l16 -17q3 -3 3 -7t-4 -8q-17 -24 -41 -37t-49 -13q-18 0 -31 6z
" />
    <glyph glyph-name="Odieresis" unicode="&#xd6;" horiz-adv-x="603" 
d="M131 45q-55 53 -55 143q0 24 2 36l31 252q8 69 43.5 121.5t91.5 81.5t124 29q95 0 150.5 -53t55.5 -143q0 -24 -2 -36l-31 -252q-9 -69 -44.5 -121.5t-91.5 -81.5t-125 -29q-94 0 -149 53zM412 99q50 46 59 122l32 256q2 18 2 26q0 66 -38.5 104.5t-105.5 38.5
q-73 0 -123.5 -46.5t-59.5 -122.5l-32 -256q-2 -18 -2 -26q0 -65 39 -103.5t105 -38.5q74 0 124 46zM427 808.5q-13 13.5 -13 34.5q0 28 18 46t44 18q21 0 34.5 -13t13.5 -35q0 -27 -18 -45.5t-44 -18.5q-22 0 -35 13.5zM261 808.5q-13 13.5 -13 34.5q0 28 18 46t44 18
q21 0 34.5 -13t13.5 -35q0 -27 -18 -45.5t-44 -18.5q-22 0 -35 13.5z" />
    <glyph glyph-name="uni1ECC" unicode="&#x1ecc;" horiz-adv-x="603" 
d="M131 45q-55 53 -55 143q0 24 2 36l31 252q8 69 43.5 121.5t91.5 81.5t124 29q95 0 150.5 -53t55.5 -143q0 -24 -2 -36l-31 -252q-9 -69 -44.5 -121.5t-91.5 -81.5t-125 -29q-94 0 -149 53zM412 99q50 46 59 122l32 256q2 18 2 26q0 66 -38.5 104.5t-105.5 38.5
q-73 0 -123.5 -46.5t-59.5 -122.5l-32 -256q-2 -18 -2 -26q0 -65 39 -103.5t105 -38.5q74 0 124 46zM227 -171q-12 13 -12 34q0 25 17 42t41 17q20 0 33 -12.5t13 -32.5q0 -25 -17.5 -43t-41.5 -18q-21 0 -33 13z" />
    <glyph glyph-name="Ograve" unicode="&#xd2;" horiz-adv-x="603" 
d="M131 45q-55 53 -55 143q0 24 2 36l31 252q8 69 43.5 121.5t91.5 81.5t124 29q95 0 150.5 -53t55.5 -143q0 -24 -2 -36l-31 -252q-9 -69 -44.5 -121.5t-91.5 -81.5t-125 -29q-94 0 -149 53zM412 99q50 46 59 122l32 256q2 18 2 26q0 66 -38.5 104.5t-105.5 38.5
q-73 0 -123.5 -46.5t-59.5 -122.5l-32 -256q-2 -18 -2 -26q0 -65 39 -103.5t105 -38.5q74 0 124 46zM404 773q0 -7 -9 -7h-35q-6 0 -11 7l-52 109q-1 2 -1 6q0 6 8 6h44q9 0 10 -7l45 -109q1 -2 1 -5z" />
    <glyph glyph-name="uni1ECE" unicode="&#x1ece;" horiz-adv-x="603" 
d="M131 45q-55 53 -55 143q0 24 2 36l31 252q8 69 43.5 121.5t91.5 81.5t124 29q95 0 150.5 -53t55.5 -143q0 -24 -2 -36l-31 -252q-9 -69 -44.5 -121.5t-91.5 -81.5t-125 -29q-94 0 -149 53zM412 99q50 46 59 122l32 256q2 18 2 26q0 66 -38.5 104.5t-105.5 38.5
q-73 0 -123.5 -46.5t-59.5 -122.5l-32 -256q-2 -18 -2 -26q0 -65 39 -103.5t105 -38.5q74 0 124 46zM360.5 752.5q-1.5 3.5 0.5 7.5q8 15 16.5 24.5t22.5 22.5t21 23t9 25q2 14 -9 25t-27 11q-17 0 -28.5 -7.5t-28.5 -28.5q-8 -8 -14 -2l-14 10q-7 6 -1 14q22 29 42 41.5
t51 12.5q33 0 53 -18.5t20 -47.5q0 -26 -11.5 -43t-34.5 -37q-24 -22 -31 -35q-6 -7 -14 -6l-17 4q-4 1 -5.5 4.5z" />
    <glyph glyph-name="Ohorn" unicode="&#x1a0;" horiz-adv-x="603" 
d="M131 45q-55 53 -55 143q0 24 2 36l31 252q8 69 43.5 121.5t91.5 81.5t124 29q95 0 150.5 -53t55.5 -143q0 -24 -2 -36l-31 -252q-9 -69 -44.5 -121.5t-91.5 -81.5t-125 -29q-94 0 -149 53zM412 99q50 46 59 122l32 256q2 18 2 26q0 66 -38.5 104.5t-105.5 38.5
q-73 0 -123.5 -46.5t-59.5 -122.5l-32 -256q-2 -18 -2 -26q0 -65 39 -103.5t105 -38.5q74 0 124 46zM549 668l3 22q2 10 11 11q26 2 47.5 20t28.5 50q1 10 11 10h27q10 0 7 -12q-10 -49 -46 -78t-80 -33q-9 0 -9 10z" />
    <glyph glyph-name="uni1EDA" unicode="&#x1eda;" horiz-adv-x="603" 
d="M131 45q-55 53 -55 143q0 24 2 36l31 252q8 69 43.5 121.5t91.5 81.5t124 29q95 0 150.5 -53t55.5 -143q0 -24 -2 -36l-31 -252q-9 -69 -44.5 -121.5t-91.5 -81.5t-125 -29q-94 0 -149 53zM412 99q50 46 59 122l32 256q2 18 2 26q0 66 -38.5 104.5t-105.5 38.5
q-73 0 -123.5 -46.5t-59.5 -122.5l-32 -256q-2 -18 -2 -26q0 -65 39 -103.5t105 -38.5q74 0 124 46zM549 668l3 22q2 10 11 11q26 2 47.5 20t28.5 50q1 10 11 10h27q10 0 7 -12q-10 -49 -46 -78t-80 -33q-9 0 -9 10zM336 769.5q-2 3.5 2 8.5l72 109q3 7 12 7h44q6 0 7 -3.5
t-3 -8.5l-79 -109q-7 -7 -13 -7h-35q-5 0 -7 3.5z" />
    <glyph glyph-name="uni1EE2" unicode="&#x1ee2;" horiz-adv-x="603" 
d="M131 45q-55 53 -55 143q0 24 2 36l31 252q8 69 43.5 121.5t91.5 81.5t124 29q95 0 150.5 -53t55.5 -143q0 -24 -2 -36l-31 -252q-9 -69 -44.5 -121.5t-91.5 -81.5t-125 -29q-94 0 -149 53zM412 99q50 46 59 122l32 256q2 18 2 26q0 66 -38.5 104.5t-105.5 38.5
q-73 0 -123.5 -46.5t-59.5 -122.5l-32 -256q-2 -18 -2 -26q0 -65 39 -103.5t105 -38.5q74 0 124 46zM549 668l3 22q2 10 11 11q26 2 47.5 20t28.5 50q1 10 11 10h27q10 0 7 -12q-10 -49 -46 -78t-80 -33q-9 0 -9 10zM227 -171q-12 13 -12 34q0 25 17 42t41 17q20 0 33 -12.5
t13 -32.5q0 -25 -17.5 -43t-41.5 -18q-21 0 -33 13z" />
    <glyph glyph-name="uni1EDC" unicode="&#x1edc;" horiz-adv-x="603" 
d="M131 45q-55 53 -55 143q0 24 2 36l31 252q8 69 43.5 121.5t91.5 81.5t124 29q95 0 150.5 -53t55.5 -143q0 -24 -2 -36l-31 -252q-9 -69 -44.5 -121.5t-91.5 -81.5t-125 -29q-94 0 -149 53zM412 99q50 46 59 122l32 256q2 18 2 26q0 66 -38.5 104.5t-105.5 38.5
q-73 0 -123.5 -46.5t-59.5 -122.5l-32 -256q-2 -18 -2 -26q0 -65 39 -103.5t105 -38.5q74 0 124 46zM549 668l3 22q2 10 11 11q26 2 47.5 20t28.5 50q1 10 11 10h27q10 0 7 -12q-10 -49 -46 -78t-80 -33q-9 0 -9 10zM404 773q0 -7 -9 -7h-35q-6 0 -11 7l-52 109q-1 2 -1 6
q0 6 8 6h44q9 0 10 -7l45 -109q1 -2 1 -5z" />
    <glyph glyph-name="uni1EDE" unicode="&#x1ede;" horiz-adv-x="603" 
d="M131 45q-55 53 -55 143q0 24 2 36l31 252q8 69 43.5 121.5t91.5 81.5t124 29q95 0 150.5 -53t55.5 -143q0 -24 -2 -36l-31 -252q-9 -69 -44.5 -121.5t-91.5 -81.5t-125 -29q-94 0 -149 53zM412 99q50 46 59 122l32 256q2 18 2 26q0 66 -38.5 104.5t-105.5 38.5
q-73 0 -123.5 -46.5t-59.5 -122.5l-32 -256q-2 -18 -2 -26q0 -65 39 -103.5t105 -38.5q74 0 124 46zM549 668l3 22q2 10 11 11q26 2 47.5 20t28.5 50q1 10 11 10h27q10 0 7 -12q-10 -49 -46 -78t-80 -33q-9 0 -9 10zM360.5 752.5q-1.5 3.5 0.5 7.5q8 15 16.5 24.5t22.5 22.5
t21 23t9 25q2 14 -9 25t-27 11q-17 0 -28.5 -7.5t-28.5 -28.5q-8 -8 -14 -2l-14 10q-7 6 -1 14q22 29 42 41.5t51 12.5q33 0 53 -18.5t20 -47.5q0 -26 -11.5 -43t-34.5 -37q-24 -22 -31 -35q-6 -7 -14 -6l-17 4q-4 1 -5.5 4.5z" />
    <glyph glyph-name="uni1EE0" unicode="&#x1ee0;" horiz-adv-x="603" 
d="M131 45q-55 53 -55 143q0 24 2 36l31 252q8 69 43.5 121.5t91.5 81.5t124 29q95 0 150.5 -53t55.5 -143q0 -24 -2 -36l-31 -252q-9 -69 -44.5 -121.5t-91.5 -81.5t-125 -29q-94 0 -149 53zM412 99q50 46 59 122l32 256q2 18 2 26q0 66 -38.5 104.5t-105.5 38.5
q-73 0 -123.5 -46.5t-59.5 -122.5l-32 -256q-2 -18 -2 -26q0 -65 39 -103.5t105 -38.5q74 0 124 46zM549 668l3 22q2 10 11 11q26 2 47.5 20t28.5 50q1 10 11 10h27q10 0 7 -12q-10 -49 -46 -78t-80 -33q-9 0 -9 10zM402 812q-13 6 -26 16q-16 10 -25.5 14.5t-20.5 4.5
q-17 0 -30.5 -5.5t-26.5 -19.5q-6 -9 -13 -2l-16 18q-5 7 0 14q37 49 90 49q15 0 27 -5t21 -10.5t12 -7.5t12.5 -8t17.5 -9t16 -3q31 0 55 28q7 10 13 2l16 -17q3 -3 3 -7t-4 -8q-17 -24 -41 -37t-49 -13q-18 0 -31 6z" />
    <glyph glyph-name="Ohungarumlaut" unicode="&#x150;" horiz-adv-x="603" 
d="M131 45q-55 53 -55 143q0 24 2 36l31 252q8 69 43.5 121.5t91.5 81.5t124 29q95 0 150.5 -53t55.5 -143q0 -24 -2 -36l-31 -252q-9 -69 -44.5 -121.5t-91.5 -81.5t-125 -29q-94 0 -149 53zM412 99q50 46 59 122l32 256q2 18 2 26q0 66 -38.5 104.5t-105.5 38.5
q-73 0 -123.5 -46.5t-59.5 -122.5l-32 -256q-2 -18 -2 -26q0 -65 39 -103.5t105 -38.5q74 0 124 46zM267 769.5q-2 3.5 1 8.5l68 109q4 7 12 7h45q6 0 7.5 -3.5t-2.5 -8.5l-71 -109q-4 -7 -13 -7h-40q-5 0 -7 3.5zM425.5 769.5q-2.5 3.5 0.5 8.5l71 109q4 7 12 7h42
q6 0 7.5 -3.5t-1.5 -8.5l-73 -109q-5 -7 -13 -7h-38q-5 0 -7.5 3.5z" />
    <glyph glyph-name="Omacron" unicode="&#x14c;" horiz-adv-x="603" 
d="M131 45q-55 53 -55 143q0 24 2 36l31 252q8 69 43.5 121.5t91.5 81.5t124 29q95 0 150.5 -53t55.5 -143q0 -24 -2 -36l-31 -252q-9 -69 -44.5 -121.5t-91.5 -81.5t-125 -29q-94 0 -149 53zM412 99q50 46 59 122l32 256q2 18 2 26q0 66 -38.5 104.5t-105.5 38.5
q-73 0 -123.5 -46.5t-59.5 -122.5l-32 -256q-2 -18 -2 -26q0 -65 39 -103.5t105 -38.5q74 0 124 46zM250 798l4 31q0 4 3 7t7 3h242q10 0 8 -10l-3 -31q-2 -10 -11 -10h-242q-10 0 -8 10z" />
    <glyph glyph-name="Oslash" unicode="&#xd8;" horiz-adv-x="603" 
d="M613 679l-56 -73q-1 -2 -1 -6q19 -38 19 -90q0 -10 -2 -34l-31 -252q-9 -69 -44.5 -121.5t-92 -81.5t-125.5 -29q-88 0 -145 49q-3 3 -5 -1l-45 -59q-7 -8 -13 -3l-35 25q-8 6 -2 13l58 77q1 2 1 6q-17 39 -17 89q0 24 2 36l31 252q8 69 43 121.5t91 81.5t124 29
q92 0 147 -49q3 -3 5 1l44 57q3 4 7 5t7 -2l34 -27q7 -7 1 -14zM146 195q0 -16 1 -24q1 -2 3 -2t3 2l320 424q2 3 0 6q-39 45 -112 45t-123 -46.5t-59 -122.5l-32 -256q-1 -9 -1 -26zM506 503q0 9 -2 25q0 2 -2 2t-4 -2l-320 -425q-3 -3 -1 -6q39 -44 111 -44q74 0 124.5 46
t59.5 122l32 256q2 18 2 26z" />
    <glyph glyph-name="Otilde" unicode="&#xd5;" horiz-adv-x="603" 
d="M131 45q-55 53 -55 143q0 24 2 36l31 252q8 69 43.5 121.5t91.5 81.5t124 29q95 0 150.5 -53t55.5 -143q0 -24 -2 -36l-31 -252q-9 -69 -44.5 -121.5t-91.5 -81.5t-125 -29q-94 0 -149 53zM412 99q50 46 59 122l32 256q2 18 2 26q0 66 -38.5 104.5t-105.5 38.5
q-73 0 -123.5 -46.5t-59.5 -122.5l-32 -256q-2 -18 -2 -26q0 -65 39 -103.5t105 -38.5q74 0 124 46zM409 803q-13 6 -26 16q-16 10 -25.5 14.5t-20.5 4.5q-17 0 -30.5 -5.5t-26.5 -19.5q-6 -9 -13 -2l-16 18q-5 7 0 14q37 49 90 49q15 0 27 -5t21 -10.5t12 -7.5t12.5 -8
t17.5 -9t16 -3q31 0 55 28q7 10 13 2l16 -17q3 -3 3 -7t-4 -8q-17 -24 -41 -37t-49 -13q-18 0 -31 6z" />
    <glyph glyph-name="OE" unicode="&#x152;" horiz-adv-x="892" 
d="M893 641q-3 -3 -8 -3h-317q-4 0 -4 -4l-31 -247q0 -4 4 -4h210q5 0 7.5 -3t1.5 -7l-5 -42q-2 -10 -11 -10h-211q-4 0 -4 -4l-31 -251q0 -2 1 -3t2 -1h318q4 0 6.5 -3t1.5 -7l-5 -42q-2 -10 -11 -10h-380q-9 0 -9 10l6 49q1 2 -0.5 3t-3.5 -1q-33 -33 -77 -51t-91 -18
q-80 0 -129 51t-49 134q0 10 2 32l35 281q7 63 39.5 112.5t82 77.5t107.5 28q47 0 86 -18t65 -51q3 -3 5 2l6 49q2 10 11 10h380q10 0 8 -10l-5 -42q0 -4 -3 -7zM388 96.5q47 43.5 55 110.5l34 284q1 8 1 23q0 59 -35 95.5t-96 36.5q-66 0 -112.5 -43.5t-54.5 -111.5
l-35 -284q-1 -8 -1 -23q0 -58 35 -94.5t95 -36.5q67 0 114 43.5z" />
    <glyph glyph-name="P" unicode="P" horiz-adv-x="574" 
d="M538 656q45 -45 45 -120q0 -9 -2 -31q-11 -87 -70 -140t-146 -53h-189q-4 0 -4 -4l-37 -298q-2 -10 -11 -10h-49q-5 0 -7.5 3t-1.5 7l84 681q2 10 11 10h255q77 0 122 -45zM472.5 414q41.5 43 41.5 111q0 52 -31 83t-83 31h-184q-4 0 -4 -4l-32 -260q0 -4 3 -4h185
q63 0 104.5 43z" />
    <glyph glyph-name="Thorn" unicode="&#xde;" horiz-adv-x="550" 
d="M495.5 498.5q45.5 -44.5 45.5 -119.5q0 -10 -2 -30q-7 -57 -37.5 -100.5t-77 -67.5t-101.5 -24h-166q-4 0 -4 -4l-18 -143q-2 -10 -11 -10h-49q-5 0 -7.5 3t-1.5 7l84 680q0 4 3 7t8 3h49q9 0 9 -10l-18 -143q0 -4 3 -4h168q78 0 123.5 -44.5zM423 252q40 36 47 96
q1 7 1 20q0 52 -30.5 82.5t-82.5 30.5h-161q-3 0 -5 -4l-31 -257q0 -4 3 -4h161q58 0 98 36z" />
    <glyph glyph-name="Q" unicode="Q" horiz-adv-x="559" 
d="M491 656.5q53 -51.5 53 -138.5q0 -24 -2 -36l-33 -268q-10 -89 -67.5 -148.5t-143.5 -71.5q-4 0 -4 -4l-12 -95q-2 -10 -11 -10h-49q-5 0 -7.5 3t-1.5 7l12 95q0 4 -3 4q-75 11 -118 60.5t-43 125.5q0 10 2 34l33 268q8 67 42.5 118t88.5 79.5t120 28.5q91 0 144 -51.5z
M474 485q2 18 2 26q0 61 -37 98t-100 37q-69 0 -117 -44.5t-57 -116.5l-33 -270q-2 -18 -2 -26q0 -61 37 -98t100 -37q69 0 117 44.5t57 116.5z" />
    <glyph glyph-name="R" unicode="R" horiz-adv-x="594" 
d="M457 7l-105 310q0 3 -3 3h-165q-3 0 -5 -4l-37 -306q-2 -10 -11 -10h-50q-4 0 -6.5 3t-1.5 7l84 680q0 4 3 7t7 3h252q75 0 119.5 -44.5t44.5 -118.5q0 -10 -2 -30q-8 -70 -51 -119t-108 -63q-4 -2 -2 -5l107 -308l1 -4q0 -8 -9 -8h-51q-10 0 -11 7zM218 634l-31 -253
q0 -4 4 -4h180q62 0 102.5 42.5t40.5 108.5q0 50 -30 80t-81 30h-180q-3 0 -5 -4z" />
    <glyph glyph-name="Racute" unicode="&#x154;" horiz-adv-x="594" 
d="M457 7l-105 310q0 3 -3 3h-165q-3 0 -5 -4l-37 -306q-2 -10 -11 -10h-50q-4 0 -6.5 3t-1.5 7l84 680q0 4 3 7t7 3h252q75 0 119.5 -44.5t44.5 -118.5q0 -10 -2 -30q-8 -70 -51 -119t-108 -63q-4 -2 -2 -5l107 -308l1 -4q0 -8 -9 -8h-51q-10 0 -11 7zM218 634l-31 -253
q0 -4 4 -4h180q62 0 102.5 42.5t40.5 108.5q0 50 -30 80t-81 30h-180q-3 0 -5 -4zM325 769.5q-2 3.5 2 8.5l72 109q3 7 12 7h44q6 0 7 -3.5t-3 -8.5l-79 -109q-7 -7 -13 -7h-35q-5 0 -7 3.5z" />
    <glyph glyph-name="Rcaron" unicode="&#x158;" horiz-adv-x="594" 
d="M457 7l-105 310q0 3 -3 3h-165q-3 0 -5 -4l-37 -306q-2 -10 -11 -10h-50q-4 0 -6.5 3t-1.5 7l84 680q0 4 3 7t7 3h252q75 0 119.5 -44.5t44.5 -118.5q0 -10 -2 -30q-8 -70 -51 -119t-108 -63q-4 -2 -2 -5l107 -308l1 -4q0 -8 -9 -8h-51q-10 0 -11 7zM218 634l-31 -253
q0 -4 4 -4h180q62 0 102.5 42.5t40.5 108.5q0 50 -30 80t-81 30h-180q-3 0 -5 -4zM260 887q0 7 9 7h39q10 0 12 -6l49 -82q1 -1 3 -1t3 1l68 82q5 6 13 6h39q6 0 7.5 -3.5t-2.5 -8.5l-92 -108q-5 -6 -14 -6h-56q-8 0 -12 6l-64 108z" />
    <glyph glyph-name="S" unicode="S" horiz-adv-x="567" 
d="M108.5 35.5q-57.5 43.5 -57.5 118.5q0 9 2 25l4 31q2 10 11 10h47q9 0 9 -10l-4 -27q-1 -5 -1 -15q0 -51 42.5 -82.5t118.5 -31.5q74 0 117 32.5t50 86.5q1 5 1 16q0 42 -35.5 71.5t-124.5 70.5q-64 27 -100 47.5t-58 51.5t-22 76q0 7 2 25q10 84 72.5 130.5t161.5 46.5
t154.5 -44.5t55.5 -119.5q0 -8 -2 -26l-2 -22q-2 -10 -11 -10h-49q-4 0 -6.5 3t-1.5 7l2 18q1 6 1 16q0 52 -39.5 84t-112.5 32q-68 0 -108.5 -29t-47.5 -84q-1 -6 -1 -16q0 -30 16.5 -51t47.5 -37.5t92 -41.5q62 -27 100 -51t61.5 -57t23.5 -79q0 -16 -1 -24
q-10 -84 -76 -134t-173 -50q-101 0 -158.5 43.5z" />
    <glyph glyph-name="Sacute" unicode="&#x15a;" horiz-adv-x="567" 
d="M108.5 35.5q-57.5 43.5 -57.5 118.5q0 9 2 25l4 31q2 10 11 10h47q9 0 9 -10l-4 -27q-1 -5 -1 -15q0 -51 42.5 -82.5t118.5 -31.5q74 0 117 32.5t50 86.5q1 5 1 16q0 42 -35.5 71.5t-124.5 70.5q-64 27 -100 47.5t-58 51.5t-22 76q0 7 2 25q10 84 72.5 130.5t161.5 46.5
t154.5 -44.5t55.5 -119.5q0 -8 -2 -26l-2 -22q-2 -10 -11 -10h-49q-4 0 -6.5 3t-1.5 7l2 18q1 6 1 16q0 52 -39.5 84t-112.5 32q-68 0 -108.5 -29t-47.5 -84q-1 -6 -1 -16q0 -30 16.5 -51t47.5 -37.5t92 -41.5q62 -27 100 -51t61.5 -57t23.5 -79q0 -16 -1 -24
q-10 -84 -76 -134t-173 -50q-101 0 -158.5 43.5zM313 769.5q-2 3.5 2 8.5l72 109q3 7 12 7h44q6 0 7 -3.5t-3 -8.5l-79 -109q-7 -7 -13 -7h-35q-5 0 -7 3.5z" />
    <glyph glyph-name="Scaron" unicode="&#x160;" horiz-adv-x="567" 
d="M108.5 35.5q-57.5 43.5 -57.5 118.5q0 9 2 25l4 31q2 10 11 10h47q9 0 9 -10l-4 -27q-1 -5 -1 -15q0 -51 42.5 -82.5t118.5 -31.5q74 0 117 32.5t50 86.5q1 5 1 16q0 42 -35.5 71.5t-124.5 70.5q-64 27 -100 47.5t-58 51.5t-22 76q0 7 2 25q10 84 72.5 130.5t161.5 46.5
t154.5 -44.5t55.5 -119.5q0 -8 -2 -26l-2 -22q-2 -10 -11 -10h-49q-4 0 -6.5 3t-1.5 7l2 18q1 6 1 16q0 52 -39.5 84t-112.5 32q-68 0 -108.5 -29t-47.5 -84q-1 -6 -1 -16q0 -30 16.5 -51t47.5 -37.5t92 -41.5q62 -27 100 -51t61.5 -57t23.5 -79q0 -16 -1 -24
q-10 -84 -76 -134t-173 -50q-101 0 -158.5 43.5zM248 887q0 7 9 7h39q10 0 12 -6l49 -82q1 -1 3 -1t3 1l68 82q5 6 13 6h39q6 0 7.5 -3.5t-2.5 -8.5l-92 -108q-5 -6 -14 -6h-56q-8 0 -12 6l-64 108z" />
    <glyph glyph-name="Scedilla" unicode="&#x15e;" horiz-adv-x="567" 
d="M457 56.5q-60 -56.5 -162 -63.5q-5 0 -2 -5q38 -38 38 -80q0 -18 -6 -34q-12 -32 -37 -46t-56 -14q-19 0 -39 5q-8 3 -5 12l7 23q1 5 4.5 6.5t7.5 0.5q11 -3 21 -3q17 0 30.5 9t19.5 27q3 9 3 19q0 38 -43 78q0 2 -4 2q-87 7 -135 50t-48 111q0 9 2 25l4 31q2 10 11 10
h47q9 0 9 -10l-4 -27q-1 -5 -1 -15q0 -51 42.5 -82.5t118.5 -31.5q74 0 117 32.5t50 86.5q1 5 1 16q0 42 -35.5 71.5t-124.5 70.5q-64 27 -100 47.5t-58 51.5t-22 76q0 7 2 25q10 84 72.5 130.5t161.5 46.5t154.5 -44.5t55.5 -119.5q0 -8 -2 -26l-2 -22q-2 -10 -11 -10h-49
q-4 0 -6.5 3t-1.5 7l2 18q1 6 1 16q0 52 -39.5 84t-112.5 32q-68 0 -108.5 -29t-47.5 -84q-1 -6 -1 -16q0 -30 16.5 -51t47.5 -37.5t92 -41.5q62 -27 100 -51t61.5 -57t23.5 -79q0 -87 -60 -143.5z" />
    <glyph glyph-name="Scircumflex" unicode="&#x15c;" horiz-adv-x="567" 
d="M108.5 35.5q-57.5 43.5 -57.5 118.5q0 9 2 25l4 31q2 10 11 10h47q9 0 9 -10l-4 -27q-1 -5 -1 -15q0 -51 42.5 -82.5t118.5 -31.5q74 0 117 32.5t50 86.5q1 5 1 16q0 42 -35.5 71.5t-124.5 70.5q-64 27 -100 47.5t-58 51.5t-22 76q0 7 2 25q10 84 72.5 130.5t161.5 46.5
t154.5 -44.5t55.5 -119.5q0 -8 -2 -26l-2 -22q-2 -10 -11 -10h-49q-4 0 -6.5 3t-1.5 7l2 18q1 6 1 16q0 52 -39.5 84t-112.5 32q-68 0 -108.5 -29t-47.5 -84q-1 -6 -1 -16q0 -30 16.5 -51t47.5 -37.5t92 -41.5q62 -27 100 -51t61.5 -57t23.5 -79q0 -16 -1 -24
q-10 -84 -76 -134t-173 -50q-101 0 -158.5 43.5zM232.5 771.5q-1.5 3.5 2.5 8.5l91 108q5 6 14 6h56q8 0 12 -6l65 -108l2 -5q0 -7 -9 -7h-39q-10 0 -12 6l-48 82q-1 2 -3 2t-3 -2l-69 -82q-5 -6 -13 -6h-39q-6 0 -7.5 3.5z" />
    <glyph glyph-name="uni018F" unicode="&#x18f;" horiz-adv-x="569" 
d="M521 373q0 -30 -7 -93q-7 -50 -12.5 -79t-14.5 -54q-27 -71 -87 -113.5t-138 -42.5q-91 0 -142 52t-51 139q0 36 11 114q2 10 11 10h354q4 0 4 4q4 37 4 68q0 16 -1 22q-7 52 -42 82t-95 30q-47 -1 -86.5 -25t-64.5 -64q-5 -10 -13 -5l-36 24q-7 5 -2 14q32 54 87.5 85.5
t124.5 31.5q80 0 130.5 -40t61.5 -111q4 -20 4 -49zM366 83.5q41 30.5 59 81.5q7 20 16 75q0 4 -4 4h-291q-4 0 -4 -4q-3 -30 -3 -53q0 -14 1 -20q4 -51 38 -82.5t91 -31.5q56 0 97 30.5z" />
    <glyph glyph-name="T" unicode="T" horiz-adv-x="552" 
d="M576 690l-6 -43q0 -4 -3 -7t-8 -3h-190q-4 0 -4 -4l-77 -623q0 -4 -3 -7t-8 -3h-49q-9 0 -9 10l77 623q0 4 -3 4h-183q-10 0 -8 10l5 43q2 10 11 10h449q9 0 9 -10z" />
    <glyph glyph-name="Tbar" unicode="&#x166;" horiz-adv-x="552" 
d="M567 640q-3 -3 -8 -3h-190q-4 0 -4 -4l-26 -210q0 -2 1 -3t2 -1h107q9 0 9 -10l-4 -28q-2 -10 -11 -10h-106q-2 0 -3.5 -1t-1.5 -3l-44 -357q0 -4 -3 -7t-8 -3h-49q-9 0 -9 10l44 357q1 1 0 2.5t-3 1.5h-105q-10 0 -8 10l3 28q2 10 11 10h105q4 0 4 4l26 210q0 4 -3 4
h-183q-10 0 -8 10l5 43q2 10 11 10h449q9 0 9 -10l-6 -43q0 -4 -3 -7z" />
    <glyph glyph-name="Tcaron" unicode="&#x164;" horiz-adv-x="552" 
d="M576 690l-6 -43q0 -4 -3 -7t-8 -3h-190q-4 0 -4 -4l-77 -623q0 -4 -3 -7t-8 -3h-49q-9 0 -9 10l77 623q0 4 -3 4h-183q-10 0 -8 10l5 43q2 10 11 10h449q9 0 9 -10zM242 885q0 7 9 7h39q10 0 12 -6l49 -82q1 -1 3 -1t3 1l68 82q5 6 13 6h39q6 0 7.5 -3.5t-2.5 -8.5
l-92 -108q-5 -6 -14 -6h-56q-8 0 -12 6l-64 108z" />
    <glyph glyph-name="U" unicode="U" horiz-adv-x="629" 
d="M144.5 43.5q-55.5 51.5 -55.5 138.5q0 10 2 34l58 474q0 4 3 7t8 3h49q9 0 9 -10l-59 -476q-1 -8 -1 -23q0 -62 39 -99.5t105 -37.5q72 0 122 44t59 116l59 476q0 4 3 7t8 3h49q10 0 8 -10l-58 -474q-8 -67 -43 -117.5t-90.5 -78.5t-124.5 -28q-94 0 -149.5 51.5z" />
    <glyph glyph-name="Uacute" unicode="&#xda;" horiz-adv-x="629" 
d="M144.5 43.5q-55.5 51.5 -55.5 138.5q0 10 2 34l58 474q0 4 3 7t8 3h49q9 0 9 -10l-59 -476q-1 -8 -1 -23q0 -62 39 -99.5t105 -37.5q72 0 122 44t59 116l59 476q0 4 3 7t8 3h49q10 0 8 -10l-58 -474q-8 -67 -43 -117.5t-90.5 -78.5t-124.5 -28q-94 0 -149.5 51.5z
M349 769.5q-2 3.5 2 8.5l72 109q3 7 12 7h44q6 0 7 -3.5t-3 -8.5l-79 -109q-7 -7 -13 -7h-35q-5 0 -7 3.5z" />
    <glyph glyph-name="Ubreve" unicode="&#x16c;" horiz-adv-x="629" 
d="M144.5 43.5q-55.5 51.5 -55.5 138.5q0 10 2 34l58 474q0 4 3 7t8 3h49q9 0 9 -10l-59 -476q-1 -8 -1 -23q0 -62 39 -99.5t105 -37.5q72 0 122 44t59 116l59 476q0 4 3 7t8 3h49q10 0 8 -10l-58 -474q-8 -67 -43 -117.5t-90.5 -78.5t-124.5 -28q-94 0 -149.5 51.5z
M311 804.5q-30 28.5 -28 70.5q0 10 10 10h26q9 0 9 -8q0 -26 19 -43.5t47 -17.5t51 16.5t30 42.5q3 10 12 10h26q11 0 8 -9q-8 -43 -45.5 -71.5t-86.5 -28.5q-48 0 -78 28.5z" />
    <glyph glyph-name="Ucircumflex" unicode="&#xdb;" horiz-adv-x="629" 
d="M144.5 43.5q-55.5 51.5 -55.5 138.5q0 10 2 34l58 474q0 4 3 7t8 3h49q9 0 9 -10l-59 -476q-1 -8 -1 -23q0 -62 39 -99.5t105 -37.5q72 0 122 44t59 116l59 476q0 4 3 7t8 3h49q10 0 8 -10l-58 -474q-8 -67 -43 -117.5t-90.5 -78.5t-124.5 -28q-94 0 -149.5 51.5z
M268.5 771.5q-1.5 3.5 2.5 8.5l91 108q5 6 14 6h56q8 0 12 -6l65 -108l2 -5q0 -7 -9 -7h-39q-10 0 -12 6l-48 82q-1 2 -3 2t-3 -2l-69 -82q-5 -6 -13 -6h-39q-6 0 -7.5 3.5z" />
    <glyph glyph-name="Udieresis" unicode="&#xdc;" horiz-adv-x="629" 
d="M144.5 43.5q-55.5 51.5 -55.5 138.5q0 10 2 34l58 474q0 4 3 7t8 3h49q9 0 9 -10l-59 -476q-1 -8 -1 -23q0 -62 39 -99.5t105 -37.5q72 0 122 44t59 116l59 476q0 4 3 7t8 3h49q10 0 8 -10l-58 -474q-8 -67 -43 -117.5t-90.5 -78.5t-124.5 -28q-94 0 -149.5 51.5z
M440 808.5q-13 13.5 -13 34.5q0 28 18 46t44 18q21 0 34.5 -13t13.5 -35q0 -27 -18 -45.5t-44 -18.5q-22 0 -35 13.5zM274 808.5q-13 13.5 -13 34.5q0 28 18 46t44 18q21 0 34.5 -13t13.5 -35q0 -27 -18 -45.5t-44 -18.5q-22 0 -35 13.5z" />
    <glyph glyph-name="uni1EE4" unicode="&#x1ee4;" horiz-adv-x="629" 
d="M144.5 43.5q-55.5 51.5 -55.5 138.5q0 10 2 34l58 474q0 4 3 7t8 3h49q9 0 9 -10l-59 -476q-1 -8 -1 -23q0 -62 39 -99.5t105 -37.5q72 0 122 44t59 116l59 476q0 4 3 7t8 3h49q10 0 8 -10l-58 -474q-8 -67 -43 -117.5t-90.5 -78.5t-124.5 -28q-94 0 -149.5 51.5z
M241 -171q-12 13 -12 34q0 25 17 42t41 17q20 0 33 -12.5t13 -32.5q0 -25 -17.5 -43t-41.5 -18q-21 0 -33 13z" />
    <glyph glyph-name="Ugrave" unicode="&#xd9;" horiz-adv-x="629" 
d="M144.5 43.5q-55.5 51.5 -55.5 138.5q0 10 2 34l58 474q0 4 3 7t8 3h49q9 0 9 -10l-59 -476q-1 -8 -1 -23q0 -62 39 -99.5t105 -37.5q72 0 122 44t59 116l59 476q0 4 3 7t8 3h49q10 0 8 -10l-58 -474q-8 -67 -43 -117.5t-90.5 -78.5t-124.5 -28q-94 0 -149.5 51.5z
M417 773q0 -7 -9 -7h-35q-6 0 -11 7l-52 109q-1 2 -1 6q0 6 8 6h44q9 0 10 -7l45 -109q1 -2 1 -5z" />
    <glyph glyph-name="uni1EE6" unicode="&#x1ee6;" horiz-adv-x="629" 
d="M144.5 43.5q-55.5 51.5 -55.5 138.5q0 10 2 34l58 474q0 4 3 7t8 3h49q9 0 9 -10l-59 -476q-1 -8 -1 -23q0 -62 39 -99.5t105 -37.5q72 0 122 44t59 116l59 476q0 4 3 7t8 3h49q10 0 8 -10l-58 -474q-8 -67 -43 -117.5t-90.5 -78.5t-124.5 -28q-94 0 -149.5 51.5z
M373.5 752.5q-1.5 3.5 0.5 7.5q8 15 16.5 24.5t22.5 22.5t21 23t9 25q2 14 -9 25t-27 11q-17 0 -28.5 -7.5t-28.5 -28.5q-8 -8 -14 -2l-14 10q-7 6 -1 14q22 29 42 41.5t51 12.5q33 0 53 -18.5t20 -47.5q0 -26 -11.5 -43t-34.5 -37q-24 -22 -31 -35q-6 -7 -14 -6l-17 4
q-4 1 -5.5 4.5z" />
    <glyph glyph-name="Uhorn" unicode="&#x1af;" horiz-adv-x="629" 
d="M144.5 43.5q-55.5 51.5 -55.5 138.5q0 10 2 34l58 474q0 4 3 7t8 3h49q9 0 9 -10l-59 -476q-1 -8 -1 -23q0 -62 39 -99.5t105 -37.5q72 0 122 44t59 116l59 476q0 4 3 7t8 3h49q10 0 8 -10l-58 -474q-8 -67 -43 -117.5t-90.5 -78.5t-124.5 -28q-94 0 -149.5 51.5z
M609 668l3 22q2 10 11 11q26 2 47.5 20t28.5 50q1 10 11 10h27q10 0 7 -12q-10 -49 -46 -78t-80 -33q-9 0 -9 10z" />
    <glyph glyph-name="uni1EE8" unicode="&#x1ee8;" horiz-adv-x="629" 
d="M144.5 43.5q-55.5 51.5 -55.5 138.5q0 10 2 34l58 474q0 4 3 7t8 3h49q9 0 9 -10l-59 -476q-1 -8 -1 -23q0 -62 39 -99.5t105 -37.5q72 0 122 44t59 116l59 476q0 4 3 7t8 3h49q10 0 8 -10l-58 -474q-8 -67 -43 -117.5t-90.5 -78.5t-124.5 -28q-94 0 -149.5 51.5z
M609 668l3 22q2 10 11 11q26 2 47.5 20t28.5 50q1 10 11 10h27q10 0 7 -12q-10 -49 -46 -78t-80 -33q-9 0 -9 10zM349 769.5q-2 3.5 2 8.5l72 109q3 7 12 7h44q6 0 7 -3.5t-3 -8.5l-79 -109q-7 -7 -13 -7h-35q-5 0 -7 3.5z" />
    <glyph glyph-name="uni1EF0" unicode="&#x1ef0;" horiz-adv-x="629" 
d="M144.5 43.5q-55.5 51.5 -55.5 138.5q0 10 2 34l58 474q0 4 3 7t8 3h49q9 0 9 -10l-59 -476q-1 -8 -1 -23q0 -62 39 -99.5t105 -37.5q72 0 122 44t59 116l59 476q0 4 3 7t8 3h49q10 0 8 -10l-58 -474q-8 -67 -43 -117.5t-90.5 -78.5t-124.5 -28q-94 0 -149.5 51.5z
M609 668l3 22q2 10 11 11q26 2 47.5 20t28.5 50q1 10 11 10h27q10 0 7 -12q-10 -49 -46 -78t-80 -33q-9 0 -9 10zM241 -171q-12 13 -12 34q0 25 17 42t41 17q20 0 33 -12.5t13 -32.5q0 -25 -17.5 -43t-41.5 -18q-21 0 -33 13z" />
    <glyph glyph-name="uni1EEA" unicode="&#x1eea;" horiz-adv-x="629" 
d="M144.5 43.5q-55.5 51.5 -55.5 138.5q0 10 2 34l58 474q0 4 3 7t8 3h49q9 0 9 -10l-59 -476q-1 -8 -1 -23q0 -62 39 -99.5t105 -37.5q72 0 122 44t59 116l59 476q0 4 3 7t8 3h49q10 0 8 -10l-58 -474q-8 -67 -43 -117.5t-90.5 -78.5t-124.5 -28q-94 0 -149.5 51.5z
M609 668l3 22q2 10 11 11q26 2 47.5 20t28.5 50q1 10 11 10h27q10 0 7 -12q-10 -49 -46 -78t-80 -33q-9 0 -9 10zM417 773q0 -7 -9 -7h-35q-6 0 -11 7l-52 109q-1 2 -1 6q0 6 8 6h44q9 0 10 -7l45 -109q1 -2 1 -5z" />
    <glyph glyph-name="uni1EEC" unicode="&#x1eec;" horiz-adv-x="629" 
d="M144.5 43.5q-55.5 51.5 -55.5 138.5q0 10 2 34l58 474q0 4 3 7t8 3h49q9 0 9 -10l-59 -476q-1 -8 -1 -23q0 -62 39 -99.5t105 -37.5q72 0 122 44t59 116l59 476q0 4 3 7t8 3h49q10 0 8 -10l-58 -474q-8 -67 -43 -117.5t-90.5 -78.5t-124.5 -28q-94 0 -149.5 51.5z
M609 668l3 22q2 10 11 11q26 2 47.5 20t28.5 50q1 10 11 10h27q10 0 7 -12q-10 -49 -46 -78t-80 -33q-9 0 -9 10zM373.5 752.5q-1.5 3.5 0.5 7.5q8 15 16.5 24.5t22.5 22.5t21 23t9 25q2 14 -9 25t-27 11q-17 0 -28.5 -7.5t-28.5 -28.5q-8 -8 -14 -2l-14 10q-7 6 -1 14
q22 29 42 41.5t51 12.5q33 0 53 -18.5t20 -47.5q0 -26 -11.5 -43t-34.5 -37q-24 -22 -31 -35q-6 -7 -14 -6l-17 4q-4 1 -5.5 4.5z" />
    <glyph glyph-name="uni1EEE" unicode="&#x1eee;" horiz-adv-x="629" 
d="M144.5 43.5q-55.5 51.5 -55.5 138.5q0 10 2 34l58 474q0 4 3 7t8 3h49q9 0 9 -10l-59 -476q-1 -8 -1 -23q0 -62 39 -99.5t105 -37.5q72 0 122 44t59 116l59 476q0 4 3 7t8 3h49q10 0 8 -10l-58 -474q-8 -67 -43 -117.5t-90.5 -78.5t-124.5 -28q-94 0 -149.5 51.5z
M609 668l3 22q2 10 11 11q26 2 47.5 20t28.5 50q1 10 11 10h27q10 0 7 -12q-10 -49 -46 -78t-80 -33q-9 0 -9 10zM422 803q-13 6 -26 16q-16 10 -25.5 14.5t-20.5 4.5q-17 0 -30.5 -5.5t-26.5 -19.5q-6 -9 -13 -2l-16 18q-5 7 0 14q37 49 90 49q15 0 27 -5t21 -10.5t12 -7.5
t12.5 -8t17.5 -9t16 -3q31 0 55 28q7 10 13 2l16 -17q3 -3 3 -7t-4 -8q-17 -24 -41 -37t-49 -13q-18 0 -31 6z" />
    <glyph glyph-name="Uhungarumlaut" unicode="&#x170;" horiz-adv-x="629" 
d="M144.5 43.5q-55.5 51.5 -55.5 138.5q0 10 2 34l58 474q0 4 3 7t8 3h49q9 0 9 -10l-59 -476q-1 -8 -1 -23q0 -62 39 -99.5t105 -37.5q72 0 122 44t59 116l59 476q0 4 3 7t8 3h49q10 0 8 -10l-58 -474q-8 -67 -43 -117.5t-90.5 -78.5t-124.5 -28q-94 0 -149.5 51.5z
M280 769.5q-2 3.5 1 8.5l68 109q4 7 12 7h45q6 0 7.5 -3.5t-2.5 -8.5l-71 -109q-4 -7 -13 -7h-40q-5 0 -7 3.5zM438.5 769.5q-2.5 3.5 0.5 8.5l71 109q4 7 12 7h42q6 0 7.5 -3.5t-1.5 -8.5l-73 -109q-5 -7 -13 -7h-38q-5 0 -7.5 3.5z" />
    <glyph glyph-name="Umacron" unicode="&#x16a;" horiz-adv-x="629" 
d="M144.5 43.5q-55.5 51.5 -55.5 138.5q0 10 2 34l58 474q0 4 3 7t8 3h49q9 0 9 -10l-59 -476q-1 -8 -1 -23q0 -62 39 -99.5t105 -37.5q72 0 122 44t59 116l59 476q0 4 3 7t8 3h49q10 0 8 -10l-58 -474q-8 -67 -43 -117.5t-90.5 -78.5t-124.5 -28q-94 0 -149.5 51.5z
M263 798l4 31q0 4 3 7t7 3h242q10 0 8 -10l-3 -31q-2 -10 -11 -10h-242q-10 0 -8 10z" />
    <glyph glyph-name="Uogonek" unicode="&#x172;" horiz-adv-x="629" 
d="M545 697q3 3 8 3h49q10 0 8 -10l-58 -474q-11 -96 -76 -156.5t-161 -66.5q-3 0 -5 -2q-57 -48 -53 -89q1 -18 12.5 -27t28.5 -9q10 0 22 3l3 1q7 0 7 -8l1 -23q0 -9 -8 -12q-20 -5 -40 -5q-33 0 -55.5 16t-22.5 53q0 51 52 99q5 3 -1 5q-77 10 -122 60t-45 127q0 10 2 34
l58 474q0 4 3 7t8 3h49q9 0 9 -10l-59 -476q-1 -8 -1 -23q0 -62 39 -99.5t105 -37.5q72 0 122 44t59 116l59 476q0 4 3 7z" />
    <glyph glyph-name="Uring" unicode="&#x16e;" horiz-adv-x="629" 
d="M144.5 43.5q-55.5 51.5 -55.5 138.5q0 10 2 34l58 474q0 4 3 7t8 3h49q9 0 9 -10l-59 -476q-1 -8 -1 -23q0 -62 39 -99.5t105 -37.5q72 0 122 44t59 116l59 476q0 4 3 7t8 3h49q10 0 8 -10l-58 -474q-8 -67 -43 -117.5t-90.5 -78.5t-124.5 -28q-94 0 -149.5 51.5z
M321.5 799.5q-26.5 26.5 -26.5 67.5q0 33 17 61t44.5 44.5t59.5 16.5q41 0 67.5 -27t26.5 -68q0 -33 -16.5 -60.5t-44.5 -44t-59 -16.5q-42 0 -68.5 26.5zM445.5 837q21.5 21 21.5 52q0 25 -15.5 41.5t-40.5 16.5q-30 0 -52 -22t-22 -53q0 -24 16.5 -40t41.5 -16
q29 0 50.5 21z" />
    <glyph glyph-name="Utilde" unicode="&#x168;" horiz-adv-x="629" 
d="M144.5 43.5q-55.5 51.5 -55.5 138.5q0 10 2 34l58 474q0 4 3 7t8 3h49q9 0 9 -10l-59 -476q-1 -8 -1 -23q0 -62 39 -99.5t105 -37.5q72 0 122 44t59 116l59 476q0 4 3 7t8 3h49q10 0 8 -10l-58 -474q-8 -67 -43 -117.5t-90.5 -78.5t-124.5 -28q-94 0 -149.5 51.5z
M422 803q-13 6 -26 16q-16 10 -25.5 14.5t-20.5 4.5q-17 0 -30.5 -5.5t-26.5 -19.5q-6 -9 -13 -2l-16 18q-5 7 0 14q37 49 90 49q15 0 27 -5t21 -10.5t12 -7.5t12.5 -8t17.5 -9t16 -3q31 0 55 28q7 10 13 2l16 -17q3 -3 3 -7t-4 -8q-17 -24 -41 -37t-49 -13q-18 0 -31 6z
" />
    <glyph glyph-name="V" unicode="V" horiz-adv-x="571" 
d="M232 2q-3 2 -4 6l-128 681v2q0 9 9 9h53q3 0 6 -2t4 -6l105 -586q0 -2 2.5 -2t3.5 2l248 586q5 8 13 8h51q10 0 7 -11l-297 -681q-5 -8 -13 -8h-53q-4 0 -7 2z" />
    <glyph glyph-name="W" unicode="W" horiz-adv-x="852" 
d="M195 8l-103 681v2q0 4 3 6.5t7 2.5h52q8 0 10 -8l80 -548q0 -2 2 -2t3 2l203 547q3 9 12 9h53q4 0 6.5 -2.5t2.5 -6.5l76 -547q0 -2 1.5 -2t2.5 2l215 548q3 8 12 8h49q11 0 8 -11l-267 -681q-3 -8 -12 -8h-51q-4 0 -7 2.5t-3 6.5l-73 560q0 2 -1.5 2t-3.5 -2l-207 -560
q-3 -9 -12 -9h-48q-8 0 -10 8z" />
    <glyph glyph-name="Wacute" unicode="&#x1e82;" horiz-adv-x="869" 
d="M195 8l-103 681v2q0 4 3 6.5t7 2.5h52q8 0 10 -8l80 -548q0 -2 2 -2t3 2l203 547q3 9 12 9h53q4 0 6.5 -2.5t2.5 -6.5l76 -547q0 -2 1.5 -2t2.5 2l215 548q3 8 12 8h49q11 0 8 -11l-267 -681q-3 -8 -12 -8h-51q-4 0 -7 2.5t-3 6.5l-73 560q0 2 -1.5 2t-3.5 -2l-207 -560
q-3 -9 -12 -9h-48q-8 0 -10 8zM469 769.5q-2 3.5 2 8.5l72 109q3 7 12 7h44q6 0 7 -3.5t-3 -8.5l-79 -109q-7 -7 -13 -7h-35q-5 0 -7 3.5z" />
    <glyph glyph-name="Wcircumflex" unicode="&#x174;" horiz-adv-x="869" 
d="M195 8l-103 681v2q0 4 3 6.5t7 2.5h52q8 0 10 -8l80 -548q0 -2 2 -2t3 2l203 547q3 9 12 9h53q4 0 6.5 -2.5t2.5 -6.5l76 -547q0 -2 1.5 -2t2.5 2l215 548q3 8 12 8h49q11 0 8 -11l-267 -681q-3 -8 -12 -8h-51q-4 0 -7 2.5t-3 6.5l-73 560q0 2 -1.5 2t-3.5 -2l-207 -560
q-3 -9 -12 -9h-48q-8 0 -10 8zM387.5 771.5q-1.5 3.5 2.5 8.5l91 108q5 6 14 6h56q8 0 12 -6l65 -108l2 -5q0 -7 -9 -7h-39q-10 0 -12 6l-48 82q-1 2 -3 2t-3 -2l-69 -82q-5 -6 -13 -6h-39q-6 0 -7.5 3.5z" />
    <glyph glyph-name="Wdieresis" unicode="&#x1e84;" horiz-adv-x="869" 
d="M195 8l-103 681v2q0 4 3 6.5t7 2.5h52q8 0 10 -8l80 -548q0 -2 2 -2t3 2l203 547q3 9 12 9h53q4 0 6.5 -2.5t2.5 -6.5l76 -547q0 -2 1.5 -2t2.5 2l215 548q3 8 12 8h49q11 0 8 -11l-267 -681q-3 -8 -12 -8h-51q-4 0 -7 2.5t-3 6.5l-73 560q0 2 -1.5 2t-3.5 -2l-207 -560
q-3 -9 -12 -9h-48q-8 0 -10 8zM560 808.5q-13 13.5 -13 34.5q0 28 18 46t44 18q21 0 34.5 -13t13.5 -35q0 -27 -18 -45.5t-44 -18.5q-22 0 -35 13.5zM394 808.5q-13 13.5 -13 34.5q0 28 18 46t44 18q21 0 34.5 -13t13.5 -35q0 -27 -18 -45.5t-44 -18.5q-22 0 -35 13.5z" />
    <glyph glyph-name="Wgrave" unicode="&#x1e80;" horiz-adv-x="869" 
d="M195 8l-103 681v2q0 4 3 6.5t7 2.5h52q8 0 10 -8l80 -548q0 -2 2 -2t3 2l203 547q3 9 12 9h53q4 0 6.5 -2.5t2.5 -6.5l76 -547q0 -2 1.5 -2t2.5 2l215 548q3 8 12 8h49q11 0 8 -11l-267 -681q-3 -8 -12 -8h-51q-4 0 -7 2.5t-3 6.5l-73 560q0 2 -1.5 2t-3.5 -2l-207 -560
q-3 -9 -12 -9h-48q-8 0 -10 8zM537 773q0 -7 -9 -7h-35q-6 0 -11 7l-52 109q-1 2 -1 6q0 6 8 6h44q9 0 10 -7l45 -109q1 -2 1 -5z" />
    <glyph glyph-name="X" unicode="X" horiz-adv-x="571" 
d="M18 3.5q-1 3.5 3 8.5l245 335q2 3 0 6l-162 335q-1 2 -1 6q0 6 8 6h54q8 0 11 -7l138 -285q1 -1 3 -1t3 1l206 285q7 7 13 7h53q12 0 5 -12l-244 -336q-3 -3 -1 -6l162 -334q1 -2 1 -5q0 -7 -9 -7h-53q-6 0 -11 7l-137 284q0 2 -2 2t-3 -2l-208 -284q-5 -7 -12 -7h-55
q-6 0 -7 3.5z" />
    <glyph glyph-name="Y" unicode="Y" horiz-adv-x="550" 
d="M223 11l36 296q0 4 -1 5l-155 376q-1 2 -1 5q0 7 9 7h53q9 0 10 -7l126 -305q1 -1 3 -1t3 1l201 305q1 3 5 5t8 2h52q6 0 7.5 -3.5t-2.5 -8.5l-248 -376q-1 -1 -1 -5l-37 -296q0 -4 -3 -7t-8 -3h-49q-10 0 -8 10z" />
    <glyph glyph-name="Yacute" unicode="&#xdd;" horiz-adv-x="550" 
d="M223 11l36 296q0 4 -1 5l-155 376q-1 2 -1 5q0 7 9 7h53q9 0 10 -7l126 -305q1 -1 3 -1t3 1l201 305q1 3 5 5t8 2h52q6 0 7.5 -3.5t-2.5 -8.5l-248 -376q-1 -1 -1 -5l-37 -296q0 -4 -3 -7t-8 -3h-49q-10 0 -8 10zM310 768.5q-2 3.5 2 8.5l72 109q3 7 12 7h44q6 0 7 -3.5
t-3 -8.5l-79 -109q-7 -7 -13 -7h-35q-5 0 -7 3.5z" />
    <glyph glyph-name="Ycircumflex" unicode="&#x176;" horiz-adv-x="550" 
d="M223 11l36 296q0 4 -1 5l-155 376q-1 2 -1 5q0 7 9 7h53q9 0 10 -7l126 -305q1 -1 3 -1t3 1l201 305q1 3 5 5t8 2h52q6 0 7.5 -3.5t-2.5 -8.5l-248 -376q-1 -1 -1 -5l-37 -296q0 -4 -3 -7t-8 -3h-49q-10 0 -8 10zM229.5 770.5q-1.5 3.5 2.5 8.5l91 108q5 6 14 6h56
q8 0 12 -6l65 -108l2 -5q0 -7 -9 -7h-39q-10 0 -12 6l-48 82q-1 2 -3 2t-3 -2l-69 -82q-5 -6 -13 -6h-39q-6 0 -7.5 3.5z" />
    <glyph glyph-name="Ydieresis" unicode="&#x178;" horiz-adv-x="550" 
d="M223 11l36 296q0 4 -1 5l-155 376q-1 2 -1 5q0 7 9 7h53q9 0 10 -7l126 -305q1 -1 3 -1t3 1l201 305q1 3 5 5t8 2h52q6 0 7.5 -3.5t-2.5 -8.5l-248 -376q-1 -1 -1 -5l-37 -296q0 -4 -3 -7t-8 -3h-49q-10 0 -8 10zM401 807.5q-13 13.5 -13 34.5q0 28 18 46t44 18
q21 0 34.5 -13t13.5 -35q0 -27 -18 -45.5t-44 -18.5q-22 0 -35 13.5zM235 807.5q-13 13.5 -13 34.5q0 28 18 46t44 18q21 0 34.5 -13t13.5 -35q0 -27 -18 -45.5t-44 -18.5q-22 0 -35 13.5z" />
    <glyph glyph-name="uni1EF4" unicode="&#x1ef4;" horiz-adv-x="550" 
d="M223 11l36 296q0 4 -1 5l-155 376q-1 2 -1 5q0 7 9 7h53q9 0 10 -7l126 -305q1 -1 3 -1t3 1l201 305q1 3 5 5t8 2h52q6 0 7.5 -3.5t-2.5 -8.5l-248 -376q-1 -1 -1 -5l-37 -296q0 -4 -3 -7t-8 -3h-49q-10 0 -8 10zM200 -171q-12 13 -12 34q0 25 17 42t41 17q20 0 33 -12.5
t13 -32.5q0 -25 -17.5 -43t-41.5 -18q-21 0 -33 13z" />
    <glyph glyph-name="Ygrave" unicode="&#x1ef2;" horiz-adv-x="550" 
d="M223 11l36 296q0 4 -1 5l-155 376q-1 2 -1 5q0 7 9 7h53q9 0 10 -7l126 -305q1 -1 3 -1t3 1l201 305q1 3 5 5t8 2h52q6 0 7.5 -3.5t-2.5 -8.5l-248 -376q-1 -1 -1 -5l-37 -296q0 -4 -3 -7t-8 -3h-49q-10 0 -8 10zM378 772q0 -7 -9 -7h-35q-6 0 -11 7l-52 109q-1 2 -1 6
q0 6 8 6h44q9 0 10 -7l45 -109q1 -2 1 -5z" />
    <glyph glyph-name="uni1EF6" unicode="&#x1ef6;" horiz-adv-x="550" 
d="M223 11l36 296q0 4 -1 5l-155 376q-1 2 -1 5q0 7 9 7h53q9 0 10 -7l126 -305q1 -1 3 -1t3 1l201 305q1 3 5 5t8 2h52q6 0 7.5 -3.5t-2.5 -8.5l-248 -376q-1 -1 -1 -5l-37 -296q0 -4 -3 -7t-8 -3h-49q-10 0 -8 10zM334.5 751.5q-1.5 3.5 0.5 7.5q8 15 16.5 24.5t22.5 22.5
t21 23t9 25q2 14 -9 25t-27 11q-17 0 -28.5 -7.5t-28.5 -28.5q-8 -8 -14 -2l-14 10q-7 6 -1 14q22 29 42 41.5t51 12.5q33 0 53 -18.5t20 -47.5q0 -26 -11.5 -43t-34.5 -37q-24 -22 -31 -35q-6 -7 -14 -6l-17 4q-4 1 -5.5 4.5z" />
    <glyph glyph-name="uni1EF8" unicode="&#x1ef8;" horiz-adv-x="550" 
d="M223 11l36 296q0 4 -1 5l-155 376q-1 2 -1 5q0 7 9 7h53q9 0 10 -7l126 -305q1 -1 3 -1t3 1l201 305q1 3 5 5t8 2h52q6 0 7.5 -3.5t-2.5 -8.5l-248 -376q-1 -1 -1 -5l-37 -296q0 -4 -3 -7t-8 -3h-49q-10 0 -8 10zM383 802q-13 6 -26 16q-16 10 -25.5 14.5t-20.5 4.5
q-17 0 -30.5 -5.5t-26.5 -19.5q-6 -9 -13 -2l-16 18q-5 7 0 14q37 49 90 49q15 0 27 -5t21 -10.5t12 -7.5t12.5 -8t17.5 -9t16 -3q31 0 55 28q7 10 13 2l16 -17q3 -3 3 -7t-4 -8q-17 -24 -41 -37t-49 -13q-18 0 -31 6z" />
    <glyph glyph-name="Z" unicode="Z" horiz-adv-x="532" 
d="M25 10l6 48q2 8 6 13l424 562q1 1 0.5 3t-2.5 2h-347q-10 0 -8 10l5 42q2 10 11 10h418q10 0 8 -10l-5 -48q-2 -7 -6 -13l-423 -562q-2 -2 -1 -3.5t3 -1.5h346q4 0 6.5 -3t1.5 -7l-5 -42q-2 -10 -11 -10h-418q-9 0 -9 10z" />
    <glyph glyph-name="Zacute" unicode="&#x179;" horiz-adv-x="532" 
d="M25 10l6 48q2 8 6 13l424 562q1 1 0.5 3t-2.5 2h-347q-10 0 -8 10l5 42q2 10 11 10h418q10 0 8 -10l-5 -48q-2 -7 -6 -13l-423 -562q-2 -2 -1 -3.5t3 -1.5h346q4 0 6.5 -3t1.5 -7l-5 -42q-2 -10 -11 -10h-418q-9 0 -9 10zM295 769.5q-2 3.5 2 8.5l72 109q3 7 12 7h44
q6 0 7 -3.5t-3 -8.5l-79 -109q-7 -7 -13 -7h-35q-5 0 -7 3.5z" />
    <glyph glyph-name="Zcaron" unicode="&#x17d;" horiz-adv-x="532" 
d="M25 10l6 48q2 8 6 13l424 562q1 1 0.5 3t-2.5 2h-347q-10 0 -8 10l5 42q2 10 11 10h418q10 0 8 -10l-5 -48q-2 -7 -6 -13l-423 -562q-2 -2 -1 -3.5t3 -1.5h346q4 0 6.5 -3t1.5 -7l-5 -42q-2 -10 -11 -10h-418q-9 0 -9 10zM230 887q0 7 9 7h39q10 0 12 -6l49 -82
q1 -1 3 -1t3 1l68 82q5 6 13 6h39q6 0 7.5 -3.5t-2.5 -8.5l-92 -108q-5 -6 -14 -6h-56q-8 0 -12 6l-64 108z" />
    <glyph glyph-name="Zdotaccent" unicode="&#x17b;" horiz-adv-x="532" 
d="M25 10l6 48q2 8 6 13l424 562q1 1 0.5 3t-2.5 2h-347q-10 0 -8 10l5 42q2 10 11 10h418q10 0 8 -10l-5 -48q-2 -7 -6 -13l-423 -562q-2 -2 -1 -3.5t3 -1.5h346q4 0 6.5 -3t1.5 -7l-5 -42q-2 -10 -11 -10h-418q-9 0 -9 10zM302 805.5q-13 13.5 -13 34.5q0 28 18 46t44 18
q21 0 34.5 -13t13.5 -35q0 -27 -18 -45.5t-44 -18.5q-22 0 -35 13.5z" />
    <glyph glyph-name="uni0122" unicode="&#x122;" horiz-adv-x="595" 
d="M129 43.5q-55 51.5 -55 136.5q0 10 2 32l34 276q8 65 43 115t90 77.5t122 27.5q93 0 148 -50.5t55 -132.5q0 -9 -2 -29l-1 -13q-2 -10 -11 -10h-50q-10 0 -8 10l1 12q1 8 1 22q0 58 -37.5 93.5t-102.5 35.5q-71 0 -120.5 -43t-58.5 -113l-34 -280q-1 -8 -1 -22
q0 -61 39 -97.5t105 -36.5q71 0 118 40t55 107l11 91q1 1 0 2.5t-3 1.5h-143q-4 0 -6.5 3t-1.5 7l5 42q2 10 11 10h206q4 0 6.5 -3t1.5 -7l-16 -129q-13 -107 -82 -167t-173 -60q-93 0 -148 51.5zM185 -194.5q-2 3.5 2 8.5l72 109q3 7 12 7h44q6 0 7 -3.5t-3 -8.5l-79 -109
q-7 -7 -13 -7h-35q-5 0 -7 3.5z" />
    <glyph glyph-name="uni0136" unicode="&#x136;" horiz-adv-x="592" 
d="M74.5 3q-2.5 3 -1.5 7l84 680q0 4 3 7t7 3h50q10 0 8 -10l-41 -339q-1 -2 1 -3t3 1l349 346q5 5 13 5h56q7 0 7 -5q0 -3 -4 -7l-271 -277q-3 -2 -1 -6l210 -393q1 -1 1 -4t-3 -5.5t-7 -2.5h-56q-9 0 -11 6l-187 348q-2 4 -6 1l-104 -101q-3 -3 -3 -5l-29 -239
q-2 -10 -11 -10h-50q-4 0 -6.5 3zM199 -186.5q-2 3.5 2 8.5l72 109q3 7 12 7h44q6 0 7 -3.5t-3 -8.5l-79 -109q-7 -7 -13 -7h-35q-5 0 -7 3.5z" />
    <glyph glyph-name="uni0145" unicode="&#x145;" horiz-adv-x="656" 
d="M572 700h49q5 0 7.5 -3t1.5 -7l-84 -680q0 -4 -3 -7t-8 -3h-48q-6 0 -11 7l-262 555q-1 3 -3 2.5t-2 -3.5l-67 -551q-2 -10 -11 -10h-50q-4 0 -6.5 3t-1.5 7l84 680q0 4 3 7t7 3h49q6 0 11 -7l262 -555q1 -3 3 -2.5t2 3.5l67 551q2 10 11 10zM219 -186.5q-2 3.5 2 8.5
l72 109q3 7 12 7h44q6 0 7 -3.5t-3 -8.5l-79 -109q-7 -7 -13 -7h-35q-5 0 -7 3.5z" />
    <glyph glyph-name="uni0156" unicode="&#x156;" horiz-adv-x="594" 
d="M457 7l-105 310q0 3 -3 3h-165q-3 0 -5 -4l-37 -306q-2 -10 -11 -10h-50q-4 0 -6.5 3t-1.5 7l84 680q0 4 3 7t7 3h252q75 0 119.5 -44.5t44.5 -118.5q0 -10 -2 -30q-8 -70 -51 -119t-108 -63q-4 -2 -2 -5l107 -308l1 -4q0 -8 -9 -8h-51q-10 0 -11 7zM218 634l-31 -253
q0 -4 4 -4h180q62 0 102.5 42.5t40.5 108.5q0 50 -30 80t-81 30h-180q-3 0 -5 -4zM192 -186.5q-2 3.5 2 8.5l72 109q3 7 12 7h44q6 0 7 -3.5t-3 -8.5l-79 -109q-7 -7 -13 -7h-35q-5 0 -7 3.5z" />
    <glyph glyph-name="uni0162" unicode="&#x162;" horiz-adv-x="552" 
d="M576 690l-6 -43q0 -4 -3 -7t-8 -3h-190q-4 0 -4 -4l-77 -623q0 -4 -3 -7t-8 -3h-49q-9 0 -9 10l77 623q0 4 -3 4h-183q-10 0 -8 10l5 43q2 10 11 10h449q9 0 9 -10zM195 -169l6 23q3 10 13 7q11 -3 21 -3q17 0 30.5 9t19.5 27q3 9 3 19q0 36 -39 75q-3 3 -3 6q0 6 8 6h26
q7 0 11 -4q46 -42 46 -90q0 -18 -5 -32q-12 -32 -37 -46t-56 -14q-19 0 -39 5q-8 3 -5 12z" />
    <glyph glyph-name="uni0218" unicode="&#x218;" horiz-adv-x="567" 
d="M108.5 35.5q-57.5 43.5 -57.5 118.5q0 9 2 25l4 31q2 10 11 10h47q9 0 9 -10l-4 -27q-1 -5 -1 -15q0 -51 42.5 -82.5t118.5 -31.5q74 0 117 32.5t50 86.5q1 5 1 16q0 42 -35.5 71.5t-124.5 70.5q-64 27 -100 47.5t-58 51.5t-22 76q0 7 2 25q10 84 72.5 130.5t161.5 46.5
t154.5 -44.5t55.5 -119.5q0 -8 -2 -26l-2 -22q-2 -10 -11 -10h-49q-4 0 -6.5 3t-1.5 7l2 18q1 6 1 16q0 52 -39.5 84t-112.5 32q-68 0 -108.5 -29t-47.5 -84q-1 -6 -1 -16q0 -30 16.5 -51t47.5 -37.5t92 -41.5q62 -27 100 -51t61.5 -57t23.5 -79q0 -16 -1 -24
q-10 -84 -76 -134t-173 -50q-101 0 -158.5 43.5zM170 -194.5q-2 3.5 2 8.5l72 109q3 7 12 7h44q6 0 7 -3.5t-3 -8.5l-79 -109q-7 -7 -13 -7h-35q-5 0 -7 3.5z" />
    <glyph glyph-name="uni021A" unicode="&#x21a;" horiz-adv-x="552" 
d="M576 690l-6 -43q0 -4 -3 -7t-8 -3h-190q-4 0 -4 -4l-77 -623q0 -4 -3 -7t-8 -3h-49q-9 0 -9 10l77 623q0 4 -3 4h-183q-10 0 -8 10l5 43q2 10 11 10h449q9 0 9 -10zM134 -186.5q-2 3.5 2 8.5l72 109q3 7 12 7h44q6 0 7 -3.5t-3 -8.5l-79 -109q-7 -7 -13 -7h-35
q-5 0 -7 3.5z" />
    <glyph glyph-name="a" unicode="a" horiz-adv-x="529" 
d="M427 503q3 3 8 3h49q9 0 9 -10l-60 -486q-2 -10 -11 -10h-50q-4 0 -6.5 3t-1.5 7l7 58q1 3 -1 3.5t-3 -2.5q-24 -36 -60.5 -56.5t-83.5 -20.5q-71 0 -114.5 46.5t-43.5 120.5q0 26 9 93q5 45 10.5 74.5t14.5 54.5q22 59 73.5 96t117.5 37q91 0 122 -75q1 -3 2.5 -2.5
t2.5 3.5l7 56q0 4 3 7zM383.5 183q3.5 18 10.5 69q7 66 7 84q0 13 -1 20q-2 41 -29.5 68.5t-73.5 27.5q-47 0 -83 -27t-50 -69q-6 -16 -9.5 -35t-9.5 -68q-8 -59 -8 -80q0 -9 2 -23q3 -42 33 -69t76 -27t79 27t47 69q6 15 9.5 33z" />
    <glyph glyph-name="aacute" unicode="&#xe1;" horiz-adv-x="495" 
d="M427 503q3 3 8 3h49q9 0 9 -10l-60 -486q-2 -10 -11 -10h-50q-4 0 -6.5 3t-1.5 7l7 58q1 3 -1 3.5t-3 -2.5q-24 -36 -60.5 -56.5t-83.5 -20.5q-71 0 -114.5 46.5t-43.5 120.5q0 26 9 93q5 45 10.5 74.5t14.5 54.5q22 59 73.5 96t117.5 37q91 0 122 -75q1 -3 2.5 -2.5
t2.5 3.5l7 56q0 4 3 7zM383.5 183q3.5 18 10.5 69q7 66 7 84q0 13 -1 20q-2 41 -29.5 68.5t-73.5 27.5q-47 0 -83 -27t-50 -69q-6 -16 -9.5 -35t-9.5 -68q-8 -59 -8 -80q0 -9 2 -23q3 -42 33 -69t76 -27t79 27t47 69q6 15 9.5 33zM259 575.5q-2 3.5 2 8.5l72 109q3 7 12 7
h44q6 0 7 -3.5t-3 -8.5l-79 -109q-7 -7 -13 -7h-35q-5 0 -7 3.5z" />
    <glyph glyph-name="abreve" unicode="&#x103;" horiz-adv-x="495" 
d="M427 503q3 3 8 3h49q9 0 9 -10l-60 -486q-2 -10 -11 -10h-50q-4 0 -6.5 3t-1.5 7l7 58q1 3 -1 3.5t-3 -2.5q-24 -36 -60.5 -56.5t-83.5 -20.5q-71 0 -114.5 46.5t-43.5 120.5q0 26 9 93q5 45 10.5 74.5t14.5 54.5q22 59 73.5 96t117.5 37q91 0 122 -75q1 -3 2.5 -2.5
t2.5 3.5l7 56q0 4 3 7zM383.5 183q3.5 18 10.5 69q7 66 7 84q0 13 -1 20q-2 41 -29.5 68.5t-73.5 27.5q-47 0 -83 -27t-50 -69q-6 -16 -9.5 -35t-9.5 -68q-8 -59 -8 -80q0 -9 2 -23q3 -42 33 -69t76 -27t79 27t47 69q6 15 9.5 33zM219 590.5q-30 28.5 -29 72.5q2 10 11 10
h29q9 0 9 -10q1 -26 19 -42.5t44 -16.5q28 0 50 16.5t28 42.5q3 10 12 10h29q11 0 8 -9q-9 -44 -46 -73t-86 -29q-48 0 -78 28.5z" />
    <glyph glyph-name="uni1EAF" unicode="&#x1eaf;" horiz-adv-x="495" 
d="M427 503q3 3 8 3h49q9 0 9 -10l-60 -486q-2 -10 -11 -10h-50q-4 0 -6.5 3t-1.5 7l7 58q1 3 -1 3.5t-3 -2.5q-24 -36 -60.5 -56.5t-83.5 -20.5q-71 0 -114.5 46.5t-43.5 120.5q0 26 9 93q5 45 10.5 74.5t14.5 54.5q22 59 73.5 96t117.5 37q91 0 122 -75q1 -3 2.5 -2.5
t2.5 3.5l7 56q0 4 3 7zM383.5 183q3.5 18 10.5 69q7 66 7 84q0 13 -1 20q-2 41 -29.5 68.5t-73.5 27.5q-47 0 -83 -27t-50 -69q-6 -16 -9.5 -35t-9.5 -68q-8 -59 -8 -80q0 -9 2 -23q3 -42 33 -69t76 -27t79 27t47 69q6 15 9.5 33zM221 609.5q-30 28.5 -28 70.5q0 10 10 10
h26q9 0 9 -8q0 -26 19 -43.5t47 -17.5t51 16.5t30 42.5q3 10 12 10h26q11 0 8 -9q-8 -43 -45.5 -71.5t-86.5 -28.5q-48 0 -78 28.5zM290 721.5q-2 3.5 2 8.5l72 109q3 7 12 7h44q6 0 7 -3.5t-3 -8.5l-79 -109q-7 -7 -13 -7h-35q-5 0 -7 3.5z" />
    <glyph glyph-name="uni1EB7" unicode="&#x1eb7;" horiz-adv-x="495" 
d="M427 503q3 3 8 3h49q9 0 9 -10l-60 -486q-2 -10 -11 -10h-50q-4 0 -6.5 3t-1.5 7l7 58q1 3 -1 3.5t-3 -2.5q-24 -36 -60.5 -56.5t-83.5 -20.5q-71 0 -114.5 46.5t-43.5 120.5q0 26 9 93q5 45 10.5 74.5t14.5 54.5q22 59 73.5 96t117.5 37q91 0 122 -75q1 -3 2.5 -2.5
t2.5 3.5l7 56q0 4 3 7zM383.5 183q3.5 18 10.5 69q7 66 7 84q0 13 -1 20q-2 41 -29.5 68.5t-73.5 27.5q-47 0 -83 -27t-50 -69q-6 -16 -9.5 -35t-9.5 -68q-8 -59 -8 -80q0 -9 2 -23q3 -42 33 -69t76 -27t79 27t47 69q6 15 9.5 33zM173 -171q-12 13 -12 34q0 25 17 42t41 17
q20 0 33 -12.5t13 -32.5q0 -25 -17.5 -43t-41.5 -18q-21 0 -33 13zM221 609.5q-30 28.5 -28 70.5q0 10 10 10h26q9 0 9 -8q0 -26 19 -43.5t47 -17.5t51 16.5t30 42.5q3 10 12 10h26q11 0 8 -9q-8 -43 -45.5 -71.5t-86.5 -28.5q-48 0 -78 28.5z" />
    <glyph glyph-name="uni1EB1" unicode="&#x1eb1;" horiz-adv-x="495" 
d="M427 503q3 3 8 3h49q9 0 9 -10l-60 -486q-2 -10 -11 -10h-50q-4 0 -6.5 3t-1.5 7l7 58q1 3 -1 3.5t-3 -2.5q-24 -36 -60.5 -56.5t-83.5 -20.5q-71 0 -114.5 46.5t-43.5 120.5q0 26 9 93q5 45 10.5 74.5t14.5 54.5q22 59 73.5 96t117.5 37q91 0 122 -75q1 -3 2.5 -2.5
t2.5 3.5l7 56q0 4 3 7zM383.5 183q3.5 18 10.5 69q7 66 7 84q0 13 -1 20q-2 41 -29.5 68.5t-73.5 27.5q-47 0 -83 -27t-50 -69q-6 -16 -9.5 -35t-9.5 -68q-8 -59 -8 -80q0 -9 2 -23q3 -42 33 -69t76 -27t79 27t47 69q6 15 9.5 33zM221 609.5q-30 28.5 -28 70.5q0 10 10 10
h26q9 0 9 -8q0 -26 19 -43.5t47 -17.5t51 16.5t30 42.5q3 10 12 10h26q11 0 8 -9q-8 -43 -45.5 -71.5t-86.5 -28.5q-48 0 -78 28.5zM345 725q0 -7 -9 -7h-35q-6 0 -11 7l-52 109q-1 2 -1 6q0 6 8 6h44q9 0 10 -7l45 -109q1 -2 1 -5z" />
    <glyph glyph-name="uni1EB3" unicode="&#x1eb3;" horiz-adv-x="495" 
d="M427 503q3 3 8 3h49q9 0 9 -10l-60 -486q-2 -10 -11 -10h-50q-4 0 -6.5 3t-1.5 7l7 58q1 3 -1 3.5t-3 -2.5q-24 -36 -60.5 -56.5t-83.5 -20.5q-71 0 -114.5 46.5t-43.5 120.5q0 26 9 93q5 45 10.5 74.5t14.5 54.5q22 59 73.5 96t117.5 37q91 0 122 -75q1 -3 2.5 -2.5
t2.5 3.5l7 56q0 4 3 7zM383.5 183q3.5 18 10.5 69q7 66 7 84q0 13 -1 20q-2 41 -29.5 68.5t-73.5 27.5q-47 0 -83 -27t-50 -69q-6 -16 -9.5 -35t-9.5 -68q-8 -59 -8 -80q0 -9 2 -23q3 -42 33 -69t76 -27t79 27t47 69q6 15 9.5 33zM221 609.5q-30 28.5 -28 70.5q0 10 10 10
h26q9 0 9 -8q0 -26 19 -43.5t47 -17.5t51 16.5t30 42.5q3 10 12 10h26q11 0 8 -9q-8 -43 -45.5 -71.5t-86.5 -28.5q-48 0 -78 28.5zM301.5 710.5q-1.5 3.5 0.5 7.5q8 15 16.5 24.5t22.5 22.5t21 23t9 25q2 14 -9 25t-27 11q-17 0 -28.5 -7.5t-28.5 -28.5q-8 -8 -14 -2
l-14 10q-7 6 -1 14q22 29 42 41.5t51 12.5q33 0 53 -18.5t20 -47.5q0 -26 -11.5 -43t-34.5 -37q-24 -22 -31 -35q-6 -7 -14 -6l-17 4q-4 1 -5.5 4.5z" />
    <glyph glyph-name="uni1EB5" unicode="&#x1eb5;" horiz-adv-x="495" 
d="M427 503q3 3 8 3h49q9 0 9 -10l-60 -486q-2 -10 -11 -10h-50q-4 0 -6.5 3t-1.5 7l7 58q1 3 -1 3.5t-3 -2.5q-24 -36 -60.5 -56.5t-83.5 -20.5q-71 0 -114.5 46.5t-43.5 120.5q0 26 9 93q5 45 10.5 74.5t14.5 54.5q22 59 73.5 96t117.5 37q91 0 122 -75q1 -3 2.5 -2.5
t2.5 3.5l7 56q0 4 3 7zM383.5 183q3.5 18 10.5 69q7 66 7 84q0 13 -1 20q-2 41 -29.5 68.5t-73.5 27.5q-47 0 -83 -27t-50 -69q-6 -16 -9.5 -35t-9.5 -68q-8 -59 -8 -80q0 -9 2 -23q3 -42 33 -69t76 -27t79 27t47 69q6 15 9.5 33zM324 747l-12 8t-16.5 8.5t-15.5 2.5
q-16 0 -28 -5.5t-25 -18.5q-7 -9 -14 -2l-14 16q-7 7 -1 14q35 47 86 47q15 0 25.5 -4.5t19 -10t11.5 -7.5q17 -11 25.5 -15t18.5 -4q30 0 52 27q8 8 14 1l14 -15q2 -4 2 -6q0 -4 -3 -9q-16 -23 -38.5 -35t-46.5 -12q-28 0 -54 20zM221 609.5q-30 28.5 -28 70.5q0 10 10 10
h26q9 0 9 -8q0 -26 19 -43.5t47 -17.5t51 16.5t30 42.5q3 10 12 10h26q11 0 8 -9q-8 -43 -45.5 -71.5t-86.5 -28.5q-48 0 -78 28.5z" />
    <glyph glyph-name="uni01CE" unicode="&#x1ce;" horiz-adv-x="495" 
d="M427 503q3 3 8 3h49q9 0 9 -10l-60 -486q-2 -10 -11 -10h-50q-4 0 -6.5 3t-1.5 7l7 58q1 3 -1 3.5t-3 -2.5q-24 -36 -60.5 -56.5t-83.5 -20.5q-71 0 -114.5 46.5t-43.5 120.5q0 26 9 93q5 45 10.5 74.5t14.5 54.5q22 59 73.5 96t117.5 37q91 0 122 -75q1 -3 2.5 -2.5
t2.5 3.5l7 56q0 4 3 7zM383.5 183q3.5 18 10.5 69q7 66 7 84q0 13 -1 20q-2 41 -29.5 68.5t-73.5 27.5q-47 0 -83 -27t-50 -69q-6 -16 -9.5 -35t-9.5 -68q-8 -59 -8 -80q0 -9 2 -23q3 -42 33 -69t76 -27t79 27t47 69q6 15 9.5 33zM194 691q0 7 9 7h39q10 0 12 -6l49 -82
q1 -1 3 -1t3 1l68 82q5 6 13 6h39q6 0 7.5 -3.5t-2.5 -8.5l-92 -108q-5 -6 -14 -6h-56q-8 0 -12 6l-64 108z" />
    <glyph glyph-name="acircumflex" unicode="&#xe2;" horiz-adv-x="495" 
d="M427 503q3 3 8 3h49q9 0 9 -10l-60 -486q-2 -10 -11 -10h-50q-4 0 -6.5 3t-1.5 7l7 58q1 3 -1 3.5t-3 -2.5q-24 -36 -60.5 -56.5t-83.5 -20.5q-71 0 -114.5 46.5t-43.5 120.5q0 26 9 93q5 45 10.5 74.5t14.5 54.5q22 59 73.5 96t117.5 37q91 0 122 -75q1 -3 2.5 -2.5
t2.5 3.5l7 56q0 4 3 7zM383.5 183q3.5 18 10.5 69q7 66 7 84q0 13 -1 20q-2 41 -29.5 68.5t-73.5 27.5q-47 0 -83 -27t-50 -69q-6 -16 -9.5 -35t-9.5 -68q-8 -59 -8 -80q0 -9 2 -23q3 -42 33 -69t76 -27t79 27t47 69q6 15 9.5 33zM177.5 577.5q-1.5 3.5 2.5 8.5l91 108
q5 6 14 6h56q8 0 12 -6l65 -108l2 -5q0 -7 -9 -7h-39q-10 0 -12 6l-48 82q-1 2 -3 2t-3 -2l-69 -82q-5 -6 -13 -6h-39q-6 0 -7.5 3.5z" />
    <glyph glyph-name="uni1EA5" unicode="&#x1ea5;" horiz-adv-x="495" 
d="M427 503q3 3 8 3h49q9 0 9 -10l-60 -486q-2 -10 -11 -10h-50q-4 0 -6.5 3t-1.5 7l7 58q1 3 -1 3.5t-3 -2.5q-24 -36 -60.5 -56.5t-83.5 -20.5q-71 0 -114.5 46.5t-43.5 120.5q0 26 9 93q5 45 10.5 74.5t14.5 54.5q22 59 73.5 96t117.5 37q91 0 122 -75q1 -3 2.5 -2.5
t2.5 3.5l7 56q0 4 3 7zM383.5 183q3.5 18 10.5 69q7 66 7 84q0 13 -1 20q-2 41 -29.5 68.5t-73.5 27.5q-47 0 -83 -27t-50 -69q-6 -16 -9.5 -35t-9.5 -68q-8 -59 -8 -80q0 -9 2 -23q3 -42 33 -69t76 -27t79 27t47 69q6 15 9.5 33zM177.5 577.5q-1.5 3.5 2.5 8.5l91 108
q5 6 14 6h56q8 0 12 -6l65 -108l2 -5q0 -7 -9 -7h-39q-10 0 -12 6l-48 82q-1 2 -3 2t-3 -2l-69 -82q-5 -6 -13 -6h-39q-6 0 -7.5 3.5zM428 651.5q-2 3.5 2 8.5l72 109q3 7 12 7h44q6 0 7 -3.5t-3 -8.5l-79 -109q-7 -7 -13 -7h-35q-5 0 -7 3.5z" />
    <glyph glyph-name="uni1EAD" unicode="&#x1ead;" horiz-adv-x="495" 
d="M427 503q3 3 8 3h49q9 0 9 -10l-60 -486q-2 -10 -11 -10h-50q-4 0 -6.5 3t-1.5 7l7 58q1 3 -1 3.5t-3 -2.5q-24 -36 -60.5 -56.5t-83.5 -20.5q-71 0 -114.5 46.5t-43.5 120.5q0 26 9 93q5 45 10.5 74.5t14.5 54.5q22 59 73.5 96t117.5 37q91 0 122 -75q1 -3 2.5 -2.5
t2.5 3.5l7 56q0 4 3 7zM383.5 183q3.5 18 10.5 69q7 66 7 84q0 13 -1 20q-2 41 -29.5 68.5t-73.5 27.5q-47 0 -83 -27t-50 -69q-6 -16 -9.5 -35t-9.5 -68q-8 -59 -8 -80q0 -9 2 -23q3 -42 33 -69t76 -27t79 27t47 69q6 15 9.5 33zM173 -171q-12 13 -12 34q0 25 17 42t41 17
q20 0 33 -12.5t13 -32.5q0 -25 -17.5 -43t-41.5 -18q-21 0 -33 13zM177.5 577.5q-1.5 3.5 2.5 8.5l91 108q5 6 14 6h56q8 0 12 -6l65 -108l2 -5q0 -7 -9 -7h-39q-10 0 -12 6l-48 82q-1 2 -3 2t-3 -2l-69 -82q-5 -6 -13 -6h-39q-6 0 -7.5 3.5z" />
    <glyph glyph-name="uni1EA7" unicode="&#x1ea7;" horiz-adv-x="495" 
d="M427 503q3 3 8 3h49q9 0 9 -10l-60 -486q-2 -10 -11 -10h-50q-4 0 -6.5 3t-1.5 7l7 58q1 3 -1 3.5t-3 -2.5q-24 -36 -60.5 -56.5t-83.5 -20.5q-71 0 -114.5 46.5t-43.5 120.5q0 26 9 93q5 45 10.5 74.5t14.5 54.5q22 59 73.5 96t117.5 37q91 0 122 -75q1 -3 2.5 -2.5
t2.5 3.5l7 56q0 4 3 7zM383.5 183q3.5 18 10.5 69q7 66 7 84q0 13 -1 20q-2 41 -29.5 68.5t-73.5 27.5q-47 0 -83 -27t-50 -69q-6 -16 -9.5 -35t-9.5 -68q-8 -59 -8 -80q0 -9 2 -23q3 -42 33 -69t76 -27t79 27t47 69q6 15 9.5 33zM177.5 577.5q-1.5 3.5 2.5 8.5l91 108
q5 6 14 6h56q8 0 12 -6l65 -108l2 -5q0 -7 -9 -7h-39q-10 0 -12 6l-48 82q-1 2 -3 2t-3 -2l-69 -82q-5 -6 -13 -6h-39q-6 0 -7.5 3.5zM474 695q0 -7 -9 -7h-35q-6 0 -11 7l-52 109q-1 2 -1 6q0 6 8 6h44q9 0 10 -7l45 -109q1 -2 1 -5z" />
    <glyph glyph-name="uni1EA9" unicode="&#x1ea9;" horiz-adv-x="495" 
d="M427 503q3 3 8 3h49q9 0 9 -10l-60 -486q-2 -10 -11 -10h-50q-4 0 -6.5 3t-1.5 7l7 58q1 3 -1 3.5t-3 -2.5q-24 -36 -60.5 -56.5t-83.5 -20.5q-71 0 -114.5 46.5t-43.5 120.5q0 26 9 93q5 45 10.5 74.5t14.5 54.5q22 59 73.5 96t117.5 37q91 0 122 -75q1 -3 2.5 -2.5
t2.5 3.5l7 56q0 4 3 7zM383.5 183q3.5 18 10.5 69q7 66 7 84q0 13 -1 20q-2 41 -29.5 68.5t-73.5 27.5q-47 0 -83 -27t-50 -69q-6 -16 -9.5 -35t-9.5 -68q-8 -59 -8 -80q0 -9 2 -23q3 -42 33 -69t76 -27t79 27t47 69q6 15 9.5 33zM177.5 577.5q-1.5 3.5 2.5 8.5l91 108
q5 6 14 6h56q8 0 12 -6l65 -108l2 -5q0 -7 -9 -7h-39q-10 0 -12 6l-48 82q-1 2 -3 2t-3 -2l-69 -82q-5 -6 -13 -6h-39q-6 0 -7.5 3.5zM410.5 678.5q-1.5 3.5 0.5 7.5q8 15 16.5 24.5t22.5 22.5t21 23t9 25q2 14 -9 25t-27 11q-17 0 -28.5 -7.5t-28.5 -28.5q-8 -8 -14 -2
l-14 10q-7 6 -1 14q22 29 42 41.5t51 12.5q33 0 53 -18.5t20 -47.5q0 -26 -11.5 -43t-34.5 -37q-24 -22 -31 -35q-6 -7 -14 -6l-17 4q-4 1 -5.5 4.5z" />
    <glyph glyph-name="uni1EAB" unicode="&#x1eab;" horiz-adv-x="495" 
d="M427 503q3 3 8 3h49q9 0 9 -10l-60 -486q-2 -10 -11 -10h-50q-4 0 -6.5 3t-1.5 7l7 58q1 3 -1 3.5t-3 -2.5q-24 -36 -60.5 -56.5t-83.5 -20.5q-71 0 -114.5 46.5t-43.5 120.5q0 26 9 93q5 45 10.5 74.5t14.5 54.5q22 59 73.5 96t117.5 37q91 0 122 -75q1 -3 2.5 -2.5
t2.5 3.5l7 56q0 4 3 7zM383.5 183q3.5 18 10.5 69q7 66 7 84q0 13 -1 20q-2 41 -29.5 68.5t-73.5 27.5q-47 0 -83 -27t-50 -69q-6 -16 -9.5 -35t-9.5 -68q-8 -59 -8 -80q0 -9 2 -23q3 -42 33 -69t76 -27t79 27t47 69q6 15 9.5 33zM177.5 577.5q-1.5 3.5 2.5 8.5l91 108
q5 6 14 6h56q8 0 12 -6l65 -108l2 -5q0 -7 -9 -7h-39q-10 0 -12 6l-48 82q-1 2 -3 2t-3 -2l-69 -82q-5 -6 -13 -6h-39q-6 0 -7.5 3.5zM347 737q-13 6 -26 16q-16 10 -25.5 14.5t-20.5 4.5q-17 0 -30.5 -5.5t-26.5 -19.5q-6 -9 -13 -2l-16 18q-5 7 0 14q37 49 90 49
q15 0 27 -5t21 -10.5t12 -7.5t12.5 -8t17.5 -9t16 -3q31 0 55 28q7 10 13 2l16 -17q3 -3 3 -7t-4 -8q-17 -24 -41 -37t-49 -13q-18 0 -31 6z" />
    <glyph glyph-name="adieresis" unicode="&#xe4;" horiz-adv-x="495" 
d="M427 503q3 3 8 3h49q9 0 9 -10l-60 -486q-2 -10 -11 -10h-50q-4 0 -6.5 3t-1.5 7l7 58q1 3 -1 3.5t-3 -2.5q-24 -36 -60.5 -56.5t-83.5 -20.5q-71 0 -114.5 46.5t-43.5 120.5q0 26 9 93q5 45 10.5 74.5t14.5 54.5q22 59 73.5 96t117.5 37q91 0 122 -75q1 -3 2.5 -2.5
t2.5 3.5l7 56q0 4 3 7zM383.5 183q3.5 18 10.5 69q7 66 7 84q0 13 -1 20q-2 41 -29.5 68.5t-73.5 27.5q-47 0 -83 -27t-50 -69q-6 -16 -9.5 -35t-9.5 -68q-8 -59 -8 -80q0 -9 2 -23q3 -42 33 -69t76 -27t79 27t47 69q6 15 9.5 33zM350 614.5q-13 13.5 -13 34.5q0 28 18 46
t44 18q21 0 34.5 -13t13.5 -35q0 -27 -18 -45.5t-44 -18.5q-22 0 -35 13.5zM184 614.5q-13 13.5 -13 34.5q0 28 18 46t44 18q21 0 34.5 -13t13.5 -35q0 -27 -18 -45.5t-44 -18.5q-22 0 -35 13.5z" />
    <glyph glyph-name="uni1EA1" unicode="&#x1ea1;" horiz-adv-x="495" 
d="M427 503q3 3 8 3h49q9 0 9 -10l-60 -486q-2 -10 -11 -10h-50q-4 0 -6.5 3t-1.5 7l7 58q1 3 -1 3.5t-3 -2.5q-24 -36 -60.5 -56.5t-83.5 -20.5q-71 0 -114.5 46.5t-43.5 120.5q0 26 9 93q5 45 10.5 74.5t14.5 54.5q22 59 73.5 96t117.5 37q91 0 122 -75q1 -3 2.5 -2.5
t2.5 3.5l7 56q0 4 3 7zM383.5 183q3.5 18 10.5 69q7 66 7 84q0 13 -1 20q-2 41 -29.5 68.5t-73.5 27.5q-47 0 -83 -27t-50 -69q-6 -16 -9.5 -35t-9.5 -68q-8 -59 -8 -80q0 -9 2 -23q3 -42 33 -69t76 -27t79 27t47 69q6 15 9.5 33zM173 -171q-12 13 -12 34q0 25 17 42t41 17
q20 0 33 -12.5t13 -32.5q0 -25 -17.5 -43t-41.5 -18q-21 0 -33 13z" />
    <glyph glyph-name="agrave" unicode="&#xe0;" horiz-adv-x="495" 
d="M427 503q3 3 8 3h49q9 0 9 -10l-60 -486q-2 -10 -11 -10h-50q-4 0 -6.5 3t-1.5 7l7 58q1 3 -1 3.5t-3 -2.5q-24 -36 -60.5 -56.5t-83.5 -20.5q-71 0 -114.5 46.5t-43.5 120.5q0 26 9 93q5 45 10.5 74.5t14.5 54.5q22 59 73.5 96t117.5 37q91 0 122 -75q1 -3 2.5 -2.5
t2.5 3.5l7 56q0 4 3 7zM383.5 183q3.5 18 10.5 69q7 66 7 84q0 13 -1 20q-2 41 -29.5 68.5t-73.5 27.5q-47 0 -83 -27t-50 -69q-6 -16 -9.5 -35t-9.5 -68q-8 -59 -8 -80q0 -9 2 -23q3 -42 33 -69t76 -27t79 27t47 69q6 15 9.5 33zM327 579q0 -7 -9 -7h-35q-6 0 -11 7
l-52 109q-1 2 -1 6q0 6 8 6h44q9 0 10 -7l45 -109q1 -2 1 -5z" />
    <glyph glyph-name="uni1EA3" unicode="&#x1ea3;" horiz-adv-x="495" 
d="M427 503q3 3 8 3h49q9 0 9 -10l-60 -486q-2 -10 -11 -10h-50q-4 0 -6.5 3t-1.5 7l7 58q1 3 -1 3.5t-3 -2.5q-24 -36 -60.5 -56.5t-83.5 -20.5q-71 0 -114.5 46.5t-43.5 120.5q0 26 9 93q5 45 10.5 74.5t14.5 54.5q22 59 73.5 96t117.5 37q91 0 122 -75q1 -3 2.5 -2.5
t2.5 3.5l7 56q0 4 3 7zM383.5 183q3.5 18 10.5 69q7 66 7 84q0 13 -1 20q-2 41 -29.5 68.5t-73.5 27.5q-47 0 -83 -27t-50 -69q-6 -16 -9.5 -35t-9.5 -68q-8 -59 -8 -80q0 -9 2 -23q3 -42 33 -69t76 -27t79 27t47 69q6 15 9.5 33zM283.5 558.5q-1.5 3.5 0.5 7.5
q8 15 16.5 24.5t22.5 22.5t21 23t9 25q2 14 -9 25t-27 11q-17 0 -28.5 -7.5t-28.5 -28.5q-8 -8 -14 -2l-14 10q-7 6 -1 14q22 29 42 41.5t51 12.5q33 0 53 -18.5t20 -47.5q0 -26 -11.5 -43t-34.5 -37q-24 -22 -31 -35q-6 -7 -14 -6l-17 4q-4 1 -5.5 4.5z" />
    <glyph glyph-name="amacron" unicode="&#x101;" horiz-adv-x="495" 
d="M427 503q3 3 8 3h49q9 0 9 -10l-60 -486q-2 -10 -11 -10h-50q-4 0 -6.5 3t-1.5 7l7 58q1 3 -1 3.5t-3 -2.5q-24 -36 -60.5 -56.5t-83.5 -20.5q-71 0 -114.5 46.5t-43.5 120.5q0 26 9 93q5 45 10.5 74.5t14.5 54.5q22 59 73.5 96t117.5 37q91 0 122 -75q1 -3 2.5 -2.5
t2.5 3.5l7 56q0 4 3 7zM383.5 183q3.5 18 10.5 69q7 66 7 84q0 13 -1 20q-2 41 -29.5 68.5t-73.5 27.5q-47 0 -83 -27t-50 -69q-6 -16 -9.5 -35t-9.5 -68q-8 -59 -8 -80q0 -9 2 -23q3 -42 33 -69t76 -27t79 27t47 69q6 15 9.5 33zM173 604l4 31q0 4 3 7t7 3h242q10 0 8 -10
l-3 -31q-2 -10 -11 -10h-242q-10 0 -8 10z" />
    <glyph glyph-name="aogonek" unicode="&#x105;" horiz-adv-x="554" 
d="M438 -138q7 0 7 -8l1 -23q0 -9 -8 -12q-20 -5 -41 -5q-31 0 -52.5 14t-25.5 46q-5 66 69 121q3 1 3 3t-2 2q-9 0 -9 10l8 59q0 3 -2 3.5t-3 -2.5q-24 -37 -60.5 -57.5t-82.5 -20.5q-72 0 -115.5 46.5t-43.5 121.5q0 17 6 71q0 7 2 21q6 47 11.5 75.5t15.5 53.5
q22 59 73 96t118 37q90 0 121 -76q1 -3 3 -2.5t2 3.5l7 57q2 10 11 10h50q4 0 6.5 -3t1.5 -7l-60 -486q0 -6 -2 -10h-1q-33 -24 -54 -50.5t-21 -51.5q0 -20 11.5 -30t30.5 -10q11 0 21 3zM400.5 185q3.5 19 9.5 67q8 59 8 81q0 9 -2 23q-3 42 -30 69t-73 27q-47 0 -82.5 -27
t-50.5 -69q-5 -15 -8.5 -33.5t-10.5 -69.5q-7 -64 -7 -83q0 -13 1 -20q3 -42 33 -69t76 -27q47 0 80 27t47 69q6 16 9.5 35z" />
    <glyph glyph-name="aring" unicode="&#xe5;" horiz-adv-x="495" 
d="M427 503q3 3 8 3h49q9 0 9 -10l-60 -486q-2 -10 -11 -10h-50q-4 0 -6.5 3t-1.5 7l7 58q1 3 -1 3.5t-3 -2.5q-24 -36 -60.5 -56.5t-83.5 -20.5q-71 0 -114.5 46.5t-43.5 120.5q0 26 9 93q5 45 10.5 74.5t14.5 54.5q22 59 73.5 96t117.5 37q91 0 122 -75q1 -3 2.5 -2.5
t2.5 3.5l7 56q0 4 3 7zM383.5 183q3.5 18 10.5 69q7 66 7 84q0 13 -1 20q-2 41 -29.5 68.5t-73.5 27.5q-47 0 -83 -27t-50 -69q-6 -16 -9.5 -35t-9.5 -68q-8 -59 -8 -80q0 -9 2 -23q3 -42 33 -69t76 -27t79 27t47 69q6 15 9.5 33zM231.5 605.5q-26.5 26.5 -26.5 67.5
q0 33 17 61t44.5 44.5t59.5 16.5q41 0 67.5 -27t26.5 -68q0 -33 -16.5 -60.5t-44.5 -44t-59 -16.5q-42 0 -68.5 26.5zM355.5 643q21.5 21 21.5 52q0 25 -15.5 41.5t-40.5 16.5q-30 0 -52 -22t-22 -53q0 -24 16.5 -40t41.5 -16q29 0 50.5 21z" />
    <glyph glyph-name="atilde" unicode="&#xe3;" horiz-adv-x="495" 
d="M427 503q3 3 8 3h49q9 0 9 -10l-60 -486q-2 -10 -11 -10h-50q-4 0 -6.5 3t-1.5 7l7 58q1 3 -1 3.5t-3 -2.5q-24 -36 -60.5 -56.5t-83.5 -20.5q-71 0 -114.5 46.5t-43.5 120.5q0 26 9 93q5 45 10.5 74.5t14.5 54.5q22 59 73.5 96t117.5 37q91 0 122 -75q1 -3 2.5 -2.5
t2.5 3.5l7 56q0 4 3 7zM383.5 183q3.5 18 10.5 69q7 66 7 84q0 13 -1 20q-2 41 -29.5 68.5t-73.5 27.5q-47 0 -83 -27t-50 -69q-6 -16 -9.5 -35t-9.5 -68q-8 -59 -8 -80q0 -9 2 -23q3 -42 33 -69t76 -27t79 27t47 69q6 15 9.5 33zM332 609q-13 6 -26 16q-16 10 -25.5 14.5
t-20.5 4.5q-17 0 -30.5 -5.5t-26.5 -19.5q-6 -9 -13 -2l-16 18q-5 7 0 14q37 49 90 49q15 0 27 -5t21 -10.5t12 -7.5t12.5 -8t17.5 -9t16 -3q31 0 55 28q7 10 13 2l16 -17q3 -3 3 -7t-4 -8q-17 -24 -41 -37t-49 -13q-18 0 -31 6z" />
    <glyph glyph-name="ae" unicode="&#xe6;" horiz-adv-x="807" 
d="M83.5 21q-43.5 29 -43.5 90q0 14 1 21q9 74 67 116t153 42h112q3 0 5 4l5 43q1 7 1 21q0 43 -25.5 68.5t-77.5 25.5q-45 0 -77.5 -19t-43.5 -51q-3 -11 -12 -9l-49 7q-10 2 -7 11q15 55 69.5 89t125.5 34q58 0 96 -24.5t50 -63.5q0 -2 1.5 -2.5t2.5 1.5q23 37 67.5 63
t95.5 26q66 0 112 -38t54 -100q2 -20 2 -32q0 -26 -9 -103q-2 -11 -11 -11h-304q-4 0 -4 -4q-5 -44 -7 -63q-3 -50 31 -77t89 -27q87 0 131 73q4 9 13 5l31 -19q7 -4 4 -13q-25 -49 -77.5 -81t-117.5 -32q-55 0 -94.5 23t-53.5 62q-1 2 -2 2t-2 -1q-25 -40 -77 -63t-113 -23
q-68 0 -111.5 29zM451 290h241q4 0 5 4q3 27 3 49q0 47 -29.5 78t-79.5 31q-47 0 -82.5 -27t-48.5 -71q-4 -11 -7.5 -31.5t-5.5 -28.5q0 -4 4 -4zM310 77.5q45 28.5 51 82.5l8 66q0 4 -3 4h-103q-69 0 -111 -26.5t-42 -77.5q0 -37 27 -57t72 -20q56 0 101 28.5z" />
    <glyph glyph-name="b" unicode="b" horiz-adv-x="529" 
d="M484 338q0 -37 -6 -85q-10 -82 -29 -127q-26 -62 -76.5 -98t-117.5 -36q-39 0 -69 16t-47 46q-1 2 -3 1.5t-2 -2.5l-6 -43q0 -4 -3 -7t-8 -3h-49q-9 0 -9 10l84 680q2 10 11 10h49q5 0 7.5 -3t1.5 -7l-29 -236q-1 -2 0.5 -2.5t3.5 1.5q25 29 59 45t73 16q69 0 111 -36.5
t52 -100.5q2 -24 2 -39zM396 179.5q7 26.5 13 73.5q5 43 5 64q0 35 -11 62q-9 33 -35 53t-64 20t-66.5 -20t-44.5 -55q-13 -21 -20.5 -48.5t-13.5 -75.5q-5 -47 -5 -67q0 -31 8 -55q8 -35 32 -56t62 -21q40 0 72.5 21t48.5 57q12 21 19 47.5z" />
    <glyph glyph-name="c" unicode="c" horiz-adv-x="504" 
d="M127 29.5q-45 37.5 -56 101.5q-3 20 -3 42q0 36 6 82q9 74 28 122q25 62 80 99.5t125 37.5q71 0 118 -37t56 -92q2 -12 2 -30q0 -9 -10 -11l-49 -7h-2q-8 0 -8 9l-1 15q-4 38 -35 64.5t-79 26.5t-84 -26.5t-51 -70.5q-14 -36 -21 -101q-5 -39 -5 -75q0 -20 1 -27
q4 -44 33 -71t78 -27q48 0 85.5 25.5t50.5 65.5q1 1 1 4l1 4q3 10 13 8l47 -8q10 -2 7 -11q-2 -9 -6 -20q-22 -58 -78.5 -94t-128.5 -36q-70 0 -115 37.5z" />
    <glyph glyph-name="cacute" unicode="&#x107;" horiz-adv-x="504" 
d="M127 29.5q-45 37.5 -56 101.5q-3 20 -3 42q0 36 6 82q9 74 28 122q25 62 80 99.5t125 37.5q71 0 118 -37t56 -92q2 -12 2 -30q0 -9 -10 -11l-49 -7h-2q-8 0 -8 9l-1 15q-4 38 -35 64.5t-79 26.5t-84 -26.5t-51 -70.5q-14 -36 -21 -101q-5 -39 -5 -75q0 -20 1 -27
q4 -44 33 -71t78 -27q48 0 85.5 25.5t50.5 65.5q1 1 1 4l1 4q3 10 13 8l47 -8q10 -2 7 -11q-2 -9 -6 -20q-22 -58 -78.5 -94t-128.5 -36q-70 0 -115 37.5zM274 575.5q-2 3.5 2 8.5l72 109q3 7 12 7h44q6 0 7 -3.5t-3 -8.5l-79 -109q-7 -7 -13 -7h-35q-5 0 -7 3.5z" />
    <glyph glyph-name="ccaron" unicode="&#x10d;" horiz-adv-x="504" 
d="M127 29.5q-45 37.5 -56 101.5q-3 20 -3 42q0 36 6 82q9 74 28 122q25 62 80 99.5t125 37.5q71 0 118 -37t56 -92q2 -12 2 -30q0 -9 -10 -11l-49 -7h-2q-8 0 -8 9l-1 15q-4 38 -35 64.5t-79 26.5t-84 -26.5t-51 -70.5q-14 -36 -21 -101q-5 -39 -5 -75q0 -20 1 -27
q4 -44 33 -71t78 -27q48 0 85.5 25.5t50.5 65.5q1 1 1 4l1 4q3 10 13 8l47 -8q10 -2 7 -11q-2 -9 -6 -20q-22 -58 -78.5 -94t-128.5 -36q-70 0 -115 37.5zM209 693q0 7 9 7h39q10 0 12 -6l49 -82q1 -1 3 -1t3 1l68 82q5 6 13 6h39q6 0 7.5 -3.5t-2.5 -8.5l-92 -108
q-5 -6 -14 -6h-56q-8 0 -12 6l-64 108z" />
    <glyph glyph-name="ccedilla" unicode="&#xe7;" horiz-adv-x="504" 
d="M387 149l1 4q3 10 13 8l47 -8q10 -2 7 -11q-2 -9 -6 -20q-20 -53 -70 -88t-113 -41q-6 0 -2 -4q38 -39 38 -82q0 -15 -5 -33q-12 -32 -37 -46t-56 -14q-21 0 -39 5q-4 1 -5.5 4t0.5 8l6 23q3 10 13 7q11 -3 21 -3q17 0 30.5 9t19.5 27q3 9 3 19q0 39 -45 80q-1 2 -5 2
q-53 10 -87.5 45.5t-44.5 90.5q-3 20 -3 42q0 36 6 82q9 74 28 122q25 62 80 99.5t125 37.5q71 0 118 -37t56 -92q2 -12 2 -30q0 -9 -10 -11l-49 -7h-2q-8 0 -8 9l-1 15q-4 38 -35 64.5t-79 26.5t-84 -26.5t-51 -70.5q-14 -36 -21 -101q-5 -39 -5 -75q0 -20 1 -27
q4 -44 33 -71t78 -27q48 0 85.5 25.5t50.5 65.5q1 1 1 4z" />
    <glyph glyph-name="ccircumflex" unicode="&#x109;" horiz-adv-x="504" 
d="M127 29.5q-45 37.5 -56 101.5q-3 20 -3 42q0 36 6 82q9 74 28 122q25 62 80 99.5t125 37.5q71 0 118 -37t56 -92q2 -12 2 -30q0 -9 -10 -11l-49 -7h-2q-8 0 -8 9l-1 15q-4 38 -35 64.5t-79 26.5t-84 -26.5t-51 -70.5q-14 -36 -21 -101q-5 -39 -5 -75q0 -20 1 -27
q4 -44 33 -71t78 -27q48 0 85.5 25.5t50.5 65.5q1 1 1 4l1 4q3 10 13 8l47 -8q10 -2 7 -11q-2 -9 -6 -20q-22 -58 -78.5 -94t-128.5 -36q-70 0 -115 37.5zM192.5 577.5q-1.5 3.5 2.5 8.5l91 108q5 6 14 6h56q8 0 12 -6l65 -108l2 -5q0 -7 -9 -7h-39q-10 0 -12 6l-48 82
q-1 2 -3 2t-3 -2l-69 -82q-5 -6 -13 -6h-39q-6 0 -7.5 3.5z" />
    <glyph glyph-name="cdotaccent" unicode="&#x10b;" horiz-adv-x="504" 
d="M127 29.5q-45 37.5 -56 101.5q-3 20 -3 42q0 36 6 82q9 74 28 122q25 62 80 99.5t125 37.5q71 0 118 -37t56 -92q2 -12 2 -30q0 -9 -10 -11l-49 -7h-2q-8 0 -8 9l-1 15q-4 38 -35 64.5t-79 26.5t-84 -26.5t-51 -70.5q-14 -36 -21 -101q-5 -39 -5 -75q0 -20 1 -27
q4 -44 33 -71t78 -27q48 0 85.5 25.5t50.5 65.5q1 1 1 4l1 4q3 10 13 8l47 -8q10 -2 7 -11q-2 -9 -6 -20q-22 -58 -78.5 -94t-128.5 -36q-70 0 -115 37.5zM281 611.5q-13 13.5 -13 34.5q0 28 18 46t44 18q21 0 34.5 -13t13.5 -35q0 -27 -18 -45.5t-44 -18.5q-22 0 -35 13.5z
" />
    <glyph glyph-name="d" unicode="d" horiz-adv-x="529" 
d="M451 697q3 3 7 3h50q10 0 8 -10l-83 -680q-2 -10 -11 -10h-50q-4 0 -6.5 3t-1.5 7l5 42q1 2 -0.5 2.5t-3.5 -1.5q-25 -29 -59 -45t-72 -16q-68 0 -109.5 36t-51.5 98q-4 20 -4 49q0 35 6 78q10 83 27 124q25 64 76 100.5t120 36.5q38 0 68 -15.5t48 -44.5q3 -5 5 1
l29 235q0 4 3 7zM380 178q7 27 13 75q5 36 5 70q0 28 -7 54q-8 34 -32 54.5t-61 20.5q-38 0 -69 -20t-48 -53q-14 -22 -22.5 -50t-14.5 -76q-5 -35 -5 -68q0 -27 7 -53q8 -36 35 -57t67 -21q39 0 67.5 21t45.5 56q12 20 19 47z" />
    <glyph glyph-name="eth" unicode="&#xf0;" horiz-adv-x="515" 
d="M461 244q-6 -47 -11 -72.5t-14 -46.5q-24 -60 -78.5 -96.5t-122.5 -36.5t-112.5 36.5t-54.5 96.5q-2 10 -2 32q0 28 7 87q5 45 10 71t14 47q18 49 59.5 81.5t94.5 37.5q16 3 34 3q32 0 60.5 -8.5t45.5 -24.5q2 -2 3 -1.5t0 3.5q-11 60 -50 117q0 1 -1.5 2t-2.5 0l-93 -27
l-4 -1q-5 0 -7 8l-4 22v2q0 7 9 11l70 21q6 2 2 5q-26 32 -67 75q-3 3 -3 6q0 2 3 4t7 2h54q7 0 11 -5q28 -32 57 -66q2 -2 5 -1l77 23l4 1q6 0 8 -8l3 -23q0 -9 -8 -12l-56 -17q-4 -1 -3 -4q33 -48 49.5 -104t13.5 -129q1 -40 -7 -111zM391 242q7 63 7 82l-1 14
q-4 43 -32.5 69.5t-75.5 26.5q-46 0 -80.5 -26.5t-48.5 -69.5q-9 -22 -19 -96q-6 -49 -6 -77q0 -15 1 -21q4 -43 32 -69.5t74 -26.5t81 26.5t50 69.5q8 22 18 98z" />
    <glyph glyph-name="dcaron" unicode="&#x10f;" horiz-adv-x="529" 
d="M451 697q3 3 7 3h50q10 0 8 -10l-83 -680q-2 -10 -11 -10h-50q-4 0 -6.5 3t-1.5 7l5 42q1 2 -0.5 2.5t-3.5 -1.5q-25 -29 -59 -45t-72 -16q-68 0 -109.5 36t-51.5 98q-4 20 -4 49q0 35 6 78q10 83 27 124q25 64 76 100.5t120 36.5q38 0 68 -15.5t48 -44.5q3 -5 5 1
l29 235q0 4 3 7zM380 178q7 27 13 75q5 36 5 70q0 28 -7 54q-8 34 -32 54.5t-61 20.5q-38 0 -69 -20t-48 -53q-14 -22 -22.5 -50t-14.5 -76q-5 -35 -5 -68q0 -27 7 -53q8 -36 35 -57t67 -21q39 0 67.5 21t45.5 56q12 20 19 47zM547 575.5q-2 3.5 2 8.5l72 109q3 7 12 7h44
q6 0 7 -3.5t-3 -8.5l-79 -109q-7 -7 -13 -7h-35q-5 0 -7 3.5z" />
    <glyph glyph-name="dcroat" unicode="&#x111;" horiz-adv-x="529" 
d="M578 610l-3 -27q-2 -10 -11 -10h-58q-4 0 -4 -4l-69 -559q-2 -10 -11 -10h-50q-4 0 -6.5 3t-1.5 7l5 42q1 2 -0.5 2.5t-3.5 -1.5q-25 -29 -59 -45t-72 -16q-68 0 -109.5 36t-51.5 98q-4 20 -4 49q0 35 6 78q10 83 27 124q25 64 76 100.5t120 36.5q38 0 68 -15.5t48 -44.5
q3 -5 5 1l14 114q0 4 -4 4h-154q-10 0 -8 10l3 27q2 10 11 10h154q4 0 4 4l9 66q0 4 3 7t7 3h50q10 0 8 -10l-8 -66q0 -4 4 -4h58q10 0 8 -10zM380 178q7 27 13 75q5 36 5 70q0 28 -7 54q-8 34 -32 54.5t-61 20.5q-38 0 -69 -20t-48 -53q-14 -22 -22.5 -50t-14.5 -76
q-5 -35 -5 -68q0 -27 7 -53q8 -36 35 -57t67 -21q39 0 67.5 21t45.5 56q12 20 19 47z" />
    <glyph glyph-name="e" unicode="e" horiz-adv-x="517" 
d="M467 236q0 -4 -3 -7t-8 -3h-313q-4 0 -4 -4q-4 -44 -4 -56q0 -51 32.5 -81.5t91.5 -30.5q42 0 74.5 19t54.5 54q8 9 14 4l35 -23q8 -5 2 -14q-30 -48 -81.5 -75.5t-115.5 -27.5q-69 1 -111 34t-56 92q-6 26 -6 58q0 35 6 80q5 43 10 69t13 47q24 65 79 104t126 39
q88 0 130 -46t43 -130q0 -38 -9 -102zM213.5 426.5q-34.5 -25.5 -50.5 -68.5q-7 -20 -16 -68q0 -4 4 -4h251q4 0 4 4q2 40 2 51q0 50 -30 80.5t-83 30.5q-47 0 -81.5 -25.5z" />
    <glyph glyph-name="eacute" unicode="&#xe9;" horiz-adv-x="517" 
d="M467 236q0 -4 -3 -7t-8 -3h-313q-4 0 -4 -4q-4 -44 -4 -56q0 -51 32.5 -81.5t91.5 -30.5q42 0 74.5 19t54.5 54q8 9 14 4l35 -23q8 -5 2 -14q-30 -48 -81.5 -75.5t-115.5 -27.5q-69 1 -111 34t-56 92q-6 26 -6 58q0 35 6 80q5 43 10 69t13 47q24 65 79 104t126 39
q88 0 130 -46t43 -130q0 -38 -9 -102zM213.5 426.5q-34.5 -25.5 -50.5 -68.5q-7 -20 -16 -68q0 -4 4 -4h251q4 0 4 4q2 40 2 51q0 50 -30 80.5t-83 30.5q-47 0 -81.5 -25.5zM269 575.5q-2 3.5 2 8.5l72 109q3 7 12 7h44q6 0 7 -3.5t-3 -8.5l-79 -109q-7 -7 -13 -7h-35
q-5 0 -7 3.5z" />
    <glyph glyph-name="ecaron" unicode="&#x11b;" horiz-adv-x="517" 
d="M467 236q0 -4 -3 -7t-8 -3h-313q-4 0 -4 -4q-4 -44 -4 -56q0 -51 32.5 -81.5t91.5 -30.5q42 0 74.5 19t54.5 54q8 9 14 4l35 -23q8 -5 2 -14q-30 -48 -81.5 -75.5t-115.5 -27.5q-69 1 -111 34t-56 92q-6 26 -6 58q0 35 6 80q5 43 10 69t13 47q24 65 79 104t126 39
q88 0 130 -46t43 -130q0 -38 -9 -102zM213.5 426.5q-34.5 -25.5 -50.5 -68.5q-7 -20 -16 -68q0 -4 4 -4h251q4 0 4 4q2 40 2 51q0 50 -30 80.5t-83 30.5q-47 0 -81.5 -25.5zM204 691q0 7 9 7h39q10 0 12 -6l49 -82q1 -1 3 -1t3 1l68 82q5 6 13 6h39q6 0 7.5 -3.5t-2.5 -8.5
l-92 -108q-5 -6 -14 -6h-56q-8 0 -12 6l-64 108z" />
    <glyph glyph-name="uni0229" unicode="&#x229;" horiz-adv-x="517" 
d="M467 236q0 -4 -3 -7t-8 -3h-313q-4 0 -4 -4q-4 -44 -4 -56q0 -51 32.5 -81.5t91.5 -30.5q42 0 74.5 19t54.5 54q8 9 14 4l35 -23q8 -5 2 -14q-27 -42 -69.5 -68.5t-95.5 -32.5q-6 -2 -3 -5q39 -38 39 -82q0 -15 -5 -33q-12 -32 -37.5 -46t-56.5 -14q-20 0 -38 5
q-9 3 -6 12l7 23q3 10 13 8q10 -3 21 -3q17 0 30 9t19 26q3 10 3 20q0 38 -43 78q-1 2 -4 2q-56 8 -91 40t-47 84q-6 26 -6 58q0 35 6 80q5 43 10 69t13 47q24 65 79 104t126 39q88 0 130 -46t43 -130q0 -38 -9 -102zM213.5 426.5q-34.5 -25.5 -50.5 -68.5q-7 -20 -16 -68
q0 -4 4 -4h251q4 0 4 4q2 40 2 51q0 50 -30 80.5t-83 30.5q-47 0 -81.5 -25.5z" />
    <glyph glyph-name="ecircumflex" unicode="&#xea;" horiz-adv-x="517" 
d="M467 236q0 -4 -3 -7t-8 -3h-313q-4 0 -4 -4q-4 -44 -4 -56q0 -51 32.5 -81.5t91.5 -30.5q42 0 74.5 19t54.5 54q8 9 14 4l35 -23q8 -5 2 -14q-30 -48 -81.5 -75.5t-115.5 -27.5q-69 1 -111 34t-56 92q-6 26 -6 58q0 35 6 80q5 43 10 69t13 47q24 65 79 104t126 39
q88 0 130 -46t43 -130q0 -38 -9 -102zM213.5 426.5q-34.5 -25.5 -50.5 -68.5q-7 -20 -16 -68q0 -4 4 -4h251q4 0 4 4q2 40 2 51q0 50 -30 80.5t-83 30.5q-47 0 -81.5 -25.5zM188.5 577.5q-1.5 3.5 2.5 8.5l91 108q5 6 14 6h56q8 0 12 -6l65 -108l2 -5q0 -7 -9 -7h-39
q-10 0 -12 6l-48 82q-1 2 -3 2t-3 -2l-69 -82q-5 -6 -13 -6h-39q-6 0 -7.5 3.5z" />
    <glyph glyph-name="uni1EBF" unicode="&#x1ebf;" horiz-adv-x="517" 
d="M467 236q0 -4 -3 -7t-8 -3h-313q-4 0 -4 -4q-4 -44 -4 -56q0 -51 32.5 -81.5t91.5 -30.5q42 0 74.5 19t54.5 54q8 9 14 4l35 -23q8 -5 2 -14q-30 -48 -81.5 -75.5t-115.5 -27.5q-69 1 -111 34t-56 92q-6 26 -6 58q0 35 6 80q5 43 10 69t13 47q24 65 79 104t126 39
q88 0 130 -46t43 -130q0 -38 -9 -102zM213.5 426.5q-34.5 -25.5 -50.5 -68.5q-7 -20 -16 -68q0 -4 4 -4h251q4 0 4 4q2 40 2 51q0 50 -30 80.5t-83 30.5q-47 0 -81.5 -25.5zM188.5 577.5q-1.5 3.5 2.5 8.5l91 108q5 6 14 6h56q8 0 12 -6l65 -108l2 -5q0 -7 -9 -7h-39
q-10 0 -12 6l-48 82q-1 2 -3 2t-3 -2l-69 -82q-5 -6 -13 -6h-39q-6 0 -7.5 3.5zM439 651.5q-2 3.5 2 8.5l72 109q3 7 12 7h44q6 0 7 -3.5t-3 -8.5l-79 -109q-7 -7 -13 -7h-35q-5 0 -7 3.5z" />
    <glyph glyph-name="uni1EC7" unicode="&#x1ec7;" horiz-adv-x="517" 
d="M467 236q0 -4 -3 -7t-8 -3h-313q-4 0 -4 -4q-4 -44 -4 -56q0 -51 32.5 -81.5t91.5 -30.5q42 0 74.5 19t54.5 54q8 9 14 4l35 -23q8 -5 2 -14q-30 -48 -81.5 -75.5t-115.5 -27.5q-69 1 -111 34t-56 92q-6 26 -6 58q0 35 6 80q5 43 10 69t13 47q24 65 79 104t126 39
q88 0 130 -46t43 -130q0 -38 -9 -102zM213.5 426.5q-34.5 -25.5 -50.5 -68.5q-7 -20 -16 -68q0 -4 4 -4h251q4 0 4 4q2 40 2 51q0 50 -30 80.5t-83 30.5q-47 0 -81.5 -25.5zM186 -180q-12 13 -12 34q0 25 17 42t41 17q20 0 33 -12.5t13 -32.5q0 -25 -17.5 -43t-41.5 -18
q-21 0 -33 13zM188.5 577.5q-1.5 3.5 2.5 8.5l91 108q5 6 14 6h56q8 0 12 -6l65 -108l2 -5q0 -7 -9 -7h-39q-10 0 -12 6l-48 82q-1 2 -3 2t-3 -2l-69 -82q-5 -6 -13 -6h-39q-6 0 -7.5 3.5z" />
    <glyph glyph-name="uni1EC1" unicode="&#x1ec1;" horiz-adv-x="517" 
d="M467 236q0 -4 -3 -7t-8 -3h-313q-4 0 -4 -4q-4 -44 -4 -56q0 -51 32.5 -81.5t91.5 -30.5q42 0 74.5 19t54.5 54q8 9 14 4l35 -23q8 -5 2 -14q-30 -48 -81.5 -75.5t-115.5 -27.5q-69 1 -111 34t-56 92q-6 26 -6 58q0 35 6 80q5 43 10 69t13 47q24 65 79 104t126 39
q88 0 130 -46t43 -130q0 -38 -9 -102zM213.5 426.5q-34.5 -25.5 -50.5 -68.5q-7 -20 -16 -68q0 -4 4 -4h251q4 0 4 4q2 40 2 51q0 50 -30 80.5t-83 30.5q-47 0 -81.5 -25.5zM188.5 577.5q-1.5 3.5 2.5 8.5l91 108q5 6 14 6h56q8 0 12 -6l65 -108l2 -5q0 -7 -9 -7h-39
q-10 0 -12 6l-48 82q-1 2 -3 2t-3 -2l-69 -82q-5 -6 -13 -6h-39q-6 0 -7.5 3.5zM485 695q0 -7 -9 -7h-35q-6 0 -11 7l-52 109q-1 2 -1 6q0 6 8 6h44q9 0 10 -7l45 -109q1 -2 1 -5z" />
    <glyph glyph-name="uni1EC3" unicode="&#x1ec3;" horiz-adv-x="517" 
d="M467 236q0 -4 -3 -7t-8 -3h-313q-4 0 -4 -4q-4 -44 -4 -56q0 -51 32.5 -81.5t91.5 -30.5q42 0 74.5 19t54.5 54q8 9 14 4l35 -23q8 -5 2 -14q-30 -48 -81.5 -75.5t-115.5 -27.5q-69 1 -111 34t-56 92q-6 26 -6 58q0 35 6 80q5 43 10 69t13 47q24 65 79 104t126 39
q88 0 130 -46t43 -130q0 -38 -9 -102zM213.5 426.5q-34.5 -25.5 -50.5 -68.5q-7 -20 -16 -68q0 -4 4 -4h251q4 0 4 4q2 40 2 51q0 50 -30 80.5t-83 30.5q-47 0 -81.5 -25.5zM188.5 577.5q-1.5 3.5 2.5 8.5l91 108q5 6 14 6h56q8 0 12 -6l65 -108l2 -5q0 -7 -9 -7h-39
q-10 0 -12 6l-48 82q-1 2 -3 2t-3 -2l-69 -82q-5 -6 -13 -6h-39q-6 0 -7.5 3.5zM421.5 678.5q-1.5 3.5 0.5 7.5q8 15 16.5 24.5t22.5 22.5t21 23t9 25q2 14 -9 25t-27 11q-17 0 -28.5 -7.5t-28.5 -28.5q-8 -8 -14 -2l-14 10q-7 6 -1 14q22 29 42 41.5t51 12.5q33 0 53 -18.5
t20 -47.5q0 -26 -11.5 -43t-34.5 -37q-24 -22 -31 -35q-6 -7 -14 -6l-17 4q-4 1 -5.5 4.5z" />
    <glyph glyph-name="uni1EC5" unicode="&#x1ec5;" horiz-adv-x="517" 
d="M467 236q0 -4 -3 -7t-8 -3h-313q-4 0 -4 -4q-4 -44 -4 -56q0 -51 32.5 -81.5t91.5 -30.5q42 0 74.5 19t54.5 54q8 9 14 4l35 -23q8 -5 2 -14q-30 -48 -81.5 -75.5t-115.5 -27.5q-69 1 -111 34t-56 92q-6 26 -6 58q0 35 6 80q5 43 10 69t13 47q24 65 79 104t126 39
q88 0 130 -46t43 -130q0 -38 -9 -102zM213.5 426.5q-34.5 -25.5 -50.5 -68.5q-7 -20 -16 -68q0 -4 4 -4h251q4 0 4 4q2 40 2 51q0 50 -30 80.5t-83 30.5q-47 0 -81.5 -25.5zM188.5 577.5q-1.5 3.5 2.5 8.5l91 108q5 6 14 6h56q8 0 12 -6l65 -108l2 -5q0 -7 -9 -7h-39
q-10 0 -12 6l-48 82q-1 2 -3 2t-3 -2l-69 -82q-5 -6 -13 -6h-39q-6 0 -7.5 3.5zM358 737q-13 6 -26 16q-16 10 -25.5 14.5t-20.5 4.5q-17 0 -30.5 -5.5t-26.5 -19.5q-6 -9 -13 -2l-16 18q-5 7 0 14q37 49 90 49q15 0 27 -5t21 -10.5t12 -7.5t12.5 -8t17.5 -9t16 -3
q31 0 55 28q7 10 13 2l16 -17q3 -3 3 -7t-4 -8q-17 -24 -41 -37t-49 -13q-18 0 -31 6z" />
    <glyph glyph-name="edieresis" unicode="&#xeb;" horiz-adv-x="517" 
d="M467 236q0 -4 -3 -7t-8 -3h-313q-4 0 -4 -4q-4 -44 -4 -56q0 -51 32.5 -81.5t91.5 -30.5q42 0 74.5 19t54.5 54q8 9 14 4l35 -23q8 -5 2 -14q-30 -48 -81.5 -75.5t-115.5 -27.5q-69 1 -111 34t-56 92q-6 26 -6 58q0 35 6 80q5 43 10 69t13 47q24 65 79 104t126 39
q88 0 130 -46t43 -130q0 -38 -9 -102zM213.5 426.5q-34.5 -25.5 -50.5 -68.5q-7 -20 -16 -68q0 -4 4 -4h251q4 0 4 4q2 40 2 51q0 50 -30 80.5t-83 30.5q-47 0 -81.5 -25.5zM360 614.5q-13 13.5 -13 34.5q0 28 18 46t44 18q21 0 34.5 -13t13.5 -35q0 -27 -18 -45.5
t-44 -18.5q-22 0 -35 13.5zM194 614.5q-13 13.5 -13 34.5q0 28 18 46t44 18q21 0 34.5 -13t13.5 -35q0 -27 -18 -45.5t-44 -18.5q-22 0 -35 13.5z" />
    <glyph glyph-name="edotaccent" unicode="&#x117;" horiz-adv-x="517" 
d="M467 236q0 -4 -3 -7t-8 -3h-313q-4 0 -4 -4q-4 -44 -4 -56q0 -51 32.5 -81.5t91.5 -30.5q42 0 74.5 19t54.5 54q8 9 14 4l35 -23q8 -5 2 -14q-30 -48 -81.5 -75.5t-115.5 -27.5q-69 1 -111 34t-56 92q-6 26 -6 58q0 35 6 80q5 43 10 69t13 47q24 65 79 104t126 39
q88 0 130 -46t43 -130q0 -38 -9 -102zM213.5 426.5q-34.5 -25.5 -50.5 -68.5q-7 -20 -16 -68q0 -4 4 -4h251q4 0 4 4q2 40 2 51q0 50 -30 80.5t-83 30.5q-47 0 -81.5 -25.5zM276 611.5q-13 13.5 -13 34.5q0 28 18 46t44 18q21 0 34.5 -13t13.5 -35q0 -27 -18 -45.5
t-44 -18.5q-22 0 -35 13.5z" />
    <glyph glyph-name="uni1EB9" unicode="&#x1eb9;" horiz-adv-x="517" 
d="M467 236q0 -4 -3 -7t-8 -3h-313q-4 0 -4 -4q-4 -44 -4 -56q0 -51 32.5 -81.5t91.5 -30.5q42 0 74.5 19t54.5 54q8 9 14 4l35 -23q8 -5 2 -14q-30 -48 -81.5 -75.5t-115.5 -27.5q-69 1 -111 34t-56 92q-6 26 -6 58q0 35 6 80q5 43 10 69t13 47q24 65 79 104t126 39
q88 0 130 -46t43 -130q0 -38 -9 -102zM213.5 426.5q-34.5 -25.5 -50.5 -68.5q-7 -20 -16 -68q0 -4 4 -4h251q4 0 4 4q2 40 2 51q0 50 -30 80.5t-83 30.5q-47 0 -81.5 -25.5zM186 -180q-12 13 -12 34q0 25 17 42t41 17q20 0 33 -12.5t13 -32.5q0 -25 -17.5 -43t-41.5 -18
q-21 0 -33 13z" />
    <glyph glyph-name="egrave" unicode="&#xe8;" horiz-adv-x="517" 
d="M467 236q0 -4 -3 -7t-8 -3h-313q-4 0 -4 -4q-4 -44 -4 -56q0 -51 32.5 -81.5t91.5 -30.5q42 0 74.5 19t54.5 54q8 9 14 4l35 -23q8 -5 2 -14q-30 -48 -81.5 -75.5t-115.5 -27.5q-69 1 -111 34t-56 92q-6 26 -6 58q0 35 6 80q5 43 10 69t13 47q24 65 79 104t126 39
q88 0 130 -46t43 -130q0 -38 -9 -102zM213.5 426.5q-34.5 -25.5 -50.5 -68.5q-7 -20 -16 -68q0 -4 4 -4h251q4 0 4 4q2 40 2 51q0 50 -30 80.5t-83 30.5q-47 0 -81.5 -25.5zM337 579q0 -7 -9 -7h-35q-6 0 -11 7l-52 109q-1 2 -1 6q0 6 8 6h44q9 0 10 -7l45 -109q1 -2 1 -5z
" />
    <glyph glyph-name="uni1EBB" unicode="&#x1ebb;" horiz-adv-x="517" 
d="M467 236q0 -4 -3 -7t-8 -3h-313q-4 0 -4 -4q-4 -44 -4 -56q0 -51 32.5 -81.5t91.5 -30.5q42 0 74.5 19t54.5 54q8 9 14 4l35 -23q8 -5 2 -14q-30 -48 -81.5 -75.5t-115.5 -27.5q-69 1 -111 34t-56 92q-6 26 -6 58q0 35 6 80q5 43 10 69t13 47q24 65 79 104t126 39
q88 0 130 -46t43 -130q0 -38 -9 -102zM213.5 426.5q-34.5 -25.5 -50.5 -68.5q-7 -20 -16 -68q0 -4 4 -4h251q4 0 4 4q2 40 2 51q0 50 -30 80.5t-83 30.5q-47 0 -81.5 -25.5zM293.5 558.5q-1.5 3.5 0.5 7.5q8 15 16.5 24.5t22.5 22.5t21 23t9 25q2 14 -9 25t-27 11
q-17 0 -28.5 -7.5t-28.5 -28.5q-8 -8 -14 -2l-14 10q-7 6 -1 14q22 29 42 41.5t51 12.5q33 0 53 -18.5t20 -47.5q0 -26 -11.5 -43t-34.5 -37q-24 -22 -31 -35q-6 -7 -14 -6l-17 4q-4 1 -5.5 4.5z" />
    <glyph glyph-name="emacron" unicode="&#x113;" horiz-adv-x="517" 
d="M467 236q0 -4 -3 -7t-8 -3h-313q-4 0 -4 -4q-4 -44 -4 -56q0 -51 32.5 -81.5t91.5 -30.5q42 0 74.5 19t54.5 54q8 9 14 4l35 -23q8 -5 2 -14q-30 -48 -81.5 -75.5t-115.5 -27.5q-69 1 -111 34t-56 92q-6 26 -6 58q0 35 6 80q5 43 10 69t13 47q24 65 79 104t126 39
q88 0 130 -46t43 -130q0 -38 -9 -102zM213.5 426.5q-34.5 -25.5 -50.5 -68.5q-7 -20 -16 -68q0 -4 4 -4h251q4 0 4 4q2 40 2 51q0 50 -30 80.5t-83 30.5q-47 0 -81.5 -25.5zM187.5 624q-2.5 3 -1.5 7l4 32q2 10 11 10h241q5 0 7.5 -3t1.5 -7l-4 -32q-2 -10 -11 -10h-241
q-5 0 -7.5 3z" />
    <glyph glyph-name="eogonek" unicode="&#x119;" horiz-adv-x="517" 
d="M467 236q0 -4 -3 -7t-8 -3h-313q-4 0 -4 -4q-4 -44 -4 -56q0 -51 32.5 -81.5t91.5 -30.5q42 0 74.5 19t54.5 54q8 9 14 4l35 -23q8 -5 2 -14q-26 -42 -70.5 -69t-98.5 -33q-2 0 -6 -2q-29 -21 -46 -45.5t-17 -48.5q0 -19 12 -28.5t30 -9.5q12 0 22 3l4 1q7 0 7 -8l1 -23
q0 -9 -9 -12q-22 -5 -41 -5q-34 0 -56 16t-22 54q0 56 62 105q5 3 -1 5q-55 7 -89 39t-46 84q-6 26 -6 58q0 35 6 80q5 43 10 69t13 47q24 65 79 104t126 39q88 0 130 -46t43 -130q0 -38 -9 -102zM213.5 426.5q-34.5 -25.5 -50.5 -68.5q-7 -20 -16 -68q0 -4 4 -4h251
q4 0 4 4q2 40 2 51q0 50 -30 80.5t-83 30.5q-47 0 -81.5 -25.5z" />
    <glyph glyph-name="uni1EBD" unicode="&#x1ebd;" horiz-adv-x="517" 
d="M467 236q0 -4 -3 -7t-8 -3h-313q-4 0 -4 -4q-4 -44 -4 -56q0 -51 32.5 -81.5t91.5 -30.5q42 0 74.5 19t54.5 54q8 9 14 4l35 -23q8 -5 2 -14q-30 -48 -81.5 -75.5t-115.5 -27.5q-69 1 -111 34t-56 92q-6 26 -6 58q0 35 6 80q5 43 10 69t13 47q24 65 79 104t126 39
q88 0 130 -46t43 -130q0 -38 -9 -102zM213.5 426.5q-34.5 -25.5 -50.5 -68.5q-7 -20 -16 -68q0 -4 4 -4h251q4 0 4 4q2 40 2 51q0 50 -30 80.5t-83 30.5q-47 0 -81.5 -25.5zM342 609q-13 6 -26 16q-16 10 -25.5 14.5t-20.5 4.5q-17 0 -30.5 -5.5t-26.5 -19.5q-6 -9 -13 -2
l-16 18q-5 7 0 14q37 49 90 49q15 0 27 -5t21 -10.5t12 -7.5t12.5 -8t17.5 -9t16 -3q31 0 55 28q7 10 13 2l16 -17q3 -3 3 -7t-4 -8q-17 -24 -41 -37t-49 -13q-18 0 -31 6z" />
    <glyph glyph-name="uni0259" unicode="&#x259;" horiz-adv-x="517" 
d="M471 331q0 -35 -6 -80q-5 -43 -10 -69t-13 -47q-24 -65 -78.5 -104t-125.5 -39q-171 0 -174 176q0 38 9 102q2 10 11 10h313q4 0 4 4q4 44 4 56q0 51 -32.5 81.5t-91.5 30.5q-42 0 -74.5 -19t-54.5 -54q-6 -9 -14 -4l-35 23q-8 6 -2 14q30 48 82 75.5t115 27.5
q69 -1 111 -34t56 -92q6 -25 6 -58zM327.5 80q34.5 26 49.5 68q9 22 16 68q1 4 -3 4h-251q-4 0 -5 -4q-2 -40 -2 -51q0 -50 30 -80.5t83 -30.5q48 0 82.5 26z" />
    <glyph glyph-name="uni0292" unicode="&#x292;" horiz-adv-x="520" 
d="M224.5 269.5q0.5 -1.5 3.5 -1.5q111 -1 165 -55t54 -139q0 -24 -2 -36q-9 -75 -50 -128t-103.5 -79.5t-136.5 -26.5q-67 0 -128 20q-8 3 -6 12l7 43q1 5 4 7.5t8 0.5q61 -19 123 -19q87 0 145 42t68 125q2 18 2 26q0 65 -40 108t-121 43q-47 0 -107 -16q-2 -1 -5 -1
q-4 0 -7 6l-10 27l-1 4q0 6 6 10l253 194q3 2 2.5 3.5t-3.5 1.5h-238q-4 0 -6.5 3t-1.5 7l6 45q0 4 3 7t7 3h332q9 0 9 -10l-6 -45q0 -5 -7 -12l-216 -166q-3 -2 -2.5 -3.5z" />
    <glyph glyph-name="uni01EF" unicode="&#x1ef;" horiz-adv-x="520" 
d="M224.5 269.5q0.5 -1.5 3.5 -1.5q111 -1 165 -55t54 -139q0 -24 -2 -36q-9 -75 -50 -128t-103.5 -79.5t-136.5 -26.5q-67 0 -128 20q-8 3 -6 12l7 43q1 5 4 7.5t8 0.5q61 -19 123 -19q87 0 145 42t68 125q2 18 2 26q0 65 -40 108t-121 43q-47 0 -107 -16q-2 -1 -5 -1
q-4 0 -7 6l-10 27l-1 4q0 6 6 10l253 194q3 2 2.5 3.5t-3.5 1.5h-238q-4 0 -6.5 3t-1.5 7l6 45q0 4 3 7t7 3h332q9 0 9 -10l-6 -45q0 -5 -7 -12l-216 -166q-3 -2 -2.5 -3.5zM199 691q0 7 9 7h39q10 0 12 -6l49 -82q1 -1 3 -1t3 1l68 82q5 6 13 6h39q6 0 7.5 -3.5t-2.5 -8.5
l-92 -108q-5 -6 -14 -6h-56q-8 0 -12 6l-64 108z" />
    <glyph glyph-name="f" unicode="f" horiz-adv-x="346" 
d="M254.5 613.5q-22.5 -24.5 -29.5 -83.5l-2 -20q-1 -1 0 -2.5t3 -1.5h109q10 0 8 -10l-5 -45q-2 -10 -11 -10h-109q-4 0 -4 -4l-53 -427q0 -4 -3 -7t-8 -3h-48q-9 0 -9 10l53 427q0 4 -4 4h-65q-4 0 -6.5 3t-1.5 7l5 45q1 4 4 7t7 3h65q2 0 3.5 1t1.5 3l3 24q7 61 25 97
t53.5 52.5t95.5 16.5h28q5 0 7.5 -3t1.5 -7l-5 -42q-2 -10 -11 -10h-22q-54 0 -76.5 -24.5z" />
    <glyph glyph-name="g" unicode="g" horiz-adv-x="519" 
d="M425 503q3 3 8 3h49q9 0 9 -10l-59 -479q-14 -112 -83 -164t-178 -52q-23 0 -34 1q-10 1 -9 11l8 46q2 11 11 9l27 -1q89 0 134 36.5t55 115.5l5 37q0 2 -1.5 2.5t-3.5 -1.5q-51 -60 -134 -60q-63 0 -108 35t-54 99q-2 22 -2 37q0 37 6 85q10 87 28 128q25 60 75 96.5
t114 36.5q86 0 124 -59q1 -2 3 -1t2 3l5 39q0 4 3 7zM383 187q3 18 9 67q8 67 8 85q0 10 -1 16q-2 42 -30 69.5t-74 27.5t-81 -27t-52 -70q-13 -31 -22 -100q-5 -37 -5 -71q0 -18 2 -30q5 -42 34.5 -69.5t75.5 -27.5q48 0 81.5 27t46.5 69q5 16 8 34z" />
    <glyph glyph-name="gbreve" unicode="&#x11f;" horiz-adv-x="519" 
d="M425 503q3 3 8 3h49q9 0 9 -10l-59 -479q-14 -112 -83 -164t-178 -52q-23 0 -34 1q-10 1 -9 11l8 46q2 11 11 9l27 -1q89 0 134 36.5t55 115.5l5 37q0 2 -1.5 2.5t-3.5 -1.5q-51 -60 -134 -60q-63 0 -108 35t-54 99q-2 22 -2 37q0 37 6 85q10 87 28 128q25 60 75 96.5
t114 36.5q86 0 124 -59q1 -2 3 -1t2 3l5 39q0 4 3 7zM383 187q3 18 9 67q8 67 8 85q0 10 -1 16q-2 42 -30 69.5t-74 27.5t-81 -27t-52 -70q-13 -31 -22 -100q-5 -37 -5 -71q0 -18 2 -30q5 -42 34.5 -69.5t75.5 -27.5q48 0 81.5 27t46.5 69q5 16 8 34zM239 590.5
q-30 28.5 -29 72.5q2 10 11 10h29q9 0 9 -10q1 -26 19 -42.5t44 -16.5q28 0 50 16.5t28 42.5q3 10 12 10h29q11 0 8 -9q-9 -44 -46 -73t-86 -29q-48 0 -78 28.5z" />
    <glyph glyph-name="gcaron" unicode="&#x1e7;" horiz-adv-x="519" 
d="M425 503q3 3 8 3h49q9 0 9 -10l-59 -479q-14 -112 -83 -164t-178 -52q-23 0 -34 1q-10 1 -9 11l8 46q2 11 11 9l27 -1q89 0 134 36.5t55 115.5l5 37q0 2 -1.5 2.5t-3.5 -1.5q-51 -60 -134 -60q-63 0 -108 35t-54 99q-2 22 -2 37q0 37 6 85q10 87 28 128q25 60 75 96.5
t114 36.5q86 0 124 -59q1 -2 3 -1t2 3l5 39q0 4 3 7zM383 187q3 18 9 67q8 67 8 85q0 10 -1 16q-2 42 -30 69.5t-74 27.5t-81 -27t-52 -70q-13 -31 -22 -100q-5 -37 -5 -71q0 -18 2 -30q5 -42 34.5 -69.5t75.5 -27.5q48 0 81.5 27t46.5 69q5 16 8 34zM214 691q0 7 9 7h39
q10 0 12 -6l49 -82q1 -1 3 -1t3 1l68 82q5 6 13 6h39q6 0 7.5 -3.5t-2.5 -8.5l-92 -108q-5 -6 -14 -6h-56q-8 0 -12 6l-64 108z" />
    <glyph glyph-name="gcircumflex" unicode="&#x11d;" horiz-adv-x="519" 
d="M425 503q3 3 8 3h49q9 0 9 -10l-59 -479q-14 -112 -83 -164t-178 -52q-23 0 -34 1q-10 1 -9 11l8 46q2 11 11 9l27 -1q89 0 134 36.5t55 115.5l5 37q0 2 -1.5 2.5t-3.5 -1.5q-51 -60 -134 -60q-63 0 -108 35t-54 99q-2 22 -2 37q0 37 6 85q10 87 28 128q25 60 75 96.5
t114 36.5q86 0 124 -59q1 -2 3 -1t2 3l5 39q0 4 3 7zM383 187q3 18 9 67q8 67 8 85q0 10 -1 16q-2 42 -30 69.5t-74 27.5t-81 -27t-52 -70q-13 -31 -22 -100q-5 -37 -5 -71q0 -18 2 -30q5 -42 34.5 -69.5t75.5 -27.5q48 0 81.5 27t46.5 69q5 16 8 34zM197.5 577.5
q-1.5 3.5 2.5 8.5l91 108q5 6 14 6h56q8 0 12 -6l65 -108l2 -5q0 -7 -9 -7h-39q-10 0 -12 6l-48 82q-1 2 -3 2t-3 -2l-69 -82q-5 -6 -13 -6h-39q-6 0 -7.5 3.5z" />
    <glyph glyph-name="gdotaccent" unicode="&#x121;" horiz-adv-x="519" 
d="M425 503q3 3 8 3h49q9 0 9 -10l-59 -479q-14 -112 -83 -164t-178 -52q-23 0 -34 1q-10 1 -9 11l8 46q2 11 11 9l27 -1q89 0 134 36.5t55 115.5l5 37q0 2 -1.5 2.5t-3.5 -1.5q-51 -60 -134 -60q-63 0 -108 35t-54 99q-2 22 -2 37q0 37 6 85q10 87 28 128q25 60 75 96.5
t114 36.5q86 0 124 -59q1 -2 3 -1t2 3l5 39q0 4 3 7zM383 187q3 18 9 67q8 67 8 85q0 10 -1 16q-2 42 -30 69.5t-74 27.5t-81 -27t-52 -70q-13 -31 -22 -100q-5 -37 -5 -71q0 -18 2 -30q5 -42 34.5 -69.5t75.5 -27.5q48 0 81.5 27t46.5 69q5 16 8 34zM286 611.5
q-13 13.5 -13 34.5q0 28 18 46t44 18q21 0 34.5 -13t13.5 -35q0 -27 -18 -45.5t-44 -18.5q-22 0 -35 13.5z" />
    <glyph glyph-name="uni01E5" unicode="&#x1e5;" horiz-adv-x="542" 
d="M556.5 277q2.5 -3 1.5 -7l-3 -27q-1 -4 -4 -7t-7 -3h-82q-4 0 -4 -4l-26 -212q-14 -112 -83 -164t-178 -52q-23 0 -34 1q-10 1 -9 11l8 46q2 11 11 9l27 -1q89 0 134 36.5t55 115.5l5 37q0 2 -1.5 2.5t-3.5 -1.5q-51 -60 -134 -60q-63 0 -108 35t-54 99q-2 22 -2 37
q0 37 6 85q10 87 28 128q25 60 75 96.5t114 36.5q86 0 124 -59q1 -2 3 -1t2 3l5 39q0 4 3 7t8 3h49q9 0 9 -10l-26 -212q-1 -1 0 -2.5t3 -1.5h81q5 0 7.5 -3zM328.5 84q33.5 27 46.5 69q4 13 7 29.5t7 46.5q0 4 -3 4h-122q-10 0 -8 10l3 27q2 10 11 10h121q4 0 5 4
q4 35 4 51l-1 20q-2 42 -30 69.5t-74 27.5t-81 -27t-52 -70q-13 -31 -22 -100q-5 -37 -5 -71q0 -18 2 -30q5 -42 34.5 -69.5t75.5 -27.5q48 0 81.5 27z" />
    <glyph glyph-name="h" unicode="h" horiz-adv-x="523" 
d="M435 474q40 -39 40 -106q0 -8 -2 -28l-40 -330q-2 -10 -11 -10h-50q-4 0 -6.5 3t-1.5 7l39 316q1 7 1 20q0 48 -27.5 76.5t-74.5 28.5q-54 0 -91 -34t-44 -89l-39 -318q0 -4 -3 -7t-8 -3h-49q-9 0 -9 10l84 680q2 10 11 10h49q5 0 7.5 -3t1.5 -7l-29 -237q-1 -2 0.5 -3
t3.5 1q24 31 59.5 46.5t78.5 15.5q70 0 110 -39z" />
    <glyph glyph-name="hbar" unicode="&#x127;" horiz-adv-x="523" 
d="M435 474q40 -39 40 -106q0 -8 -2 -28l-40 -330q-2 -10 -11 -10h-50q-4 0 -6.5 3t-1.5 7l39 316q1 7 1 20q0 48 -27.5 76.5t-74.5 28.5q-54 0 -91 -34t-44 -89l-39 -318q0 -4 -3 -7t-8 -3h-49q-9 0 -9 10l67 544q0 4 -3 4h-56q-5 0 -7.5 3t-1.5 7l3 27q1 4 4 7t7 3h57
q4 0 4 4l10 81q2 10 11 10h49q5 0 7.5 -3t1.5 -7l-10 -81q0 -4 3 -4h155q5 0 7.5 -3t1.5 -7l-3 -27q-1 -4 -4 -7t-7 -3h-156q-1 0 -2.5 -1t-1.5 -3l-12 -101q-1 -2 0.5 -3t3.5 1q24 31 59.5 46.5t78.5 15.5q70 0 110 -39z" />
    <glyph glyph-name="uni021F" unicode="&#x21f;" horiz-adv-x="523" 
d="M435 474q40 -39 40 -106q0 -8 -2 -28l-40 -330q-2 -10 -11 -10h-50q-4 0 -6.5 3t-1.5 7l39 316q1 7 1 20q0 48 -27.5 76.5t-74.5 28.5q-54 0 -91 -34t-44 -89l-39 -318q0 -4 -3 -7t-8 -3h-49q-9 0 -9 10l84 680q2 10 11 10h49q5 0 7.5 -3t1.5 -7l-29 -237q-1 -2 0.5 -3
t3.5 1q24 31 59.5 46.5t78.5 15.5q70 0 110 -39zM227 885q0 7 9 7h39q10 0 12 -6l49 -82q1 -1 3 -1t3 1l68 82q5 6 13 6h39q6 0 7.5 -3.5t-2.5 -8.5l-92 -108q-5 -6 -14 -6h-56q-8 0 -12 6l-64 108z" />
    <glyph glyph-name="hcircumflex" unicode="&#x125;" horiz-adv-x="523" 
d="M435 474q40 -39 40 -106q0 -8 -2 -28l-40 -330q-2 -10 -11 -10h-50q-4 0 -6.5 3t-1.5 7l39 316q1 7 1 20q0 48 -27.5 76.5t-74.5 28.5q-54 0 -91 -34t-44 -89l-39 -318q0 -4 -3 -7t-8 -3h-49q-9 0 -9 10l84 680q2 10 11 10h49q5 0 7.5 -3t1.5 -7l-29 -237q-1 -2 0.5 -3
t3.5 1q24 31 59.5 46.5t78.5 15.5q70 0 110 -39zM219.5 754.5q-1.5 3.5 2.5 8.5l91 108q5 6 14 6h56q8 0 12 -6l65 -108l2 -5q0 -7 -9 -7h-39q-10 0 -12 6l-48 82q-1 2 -3 2t-3 -2l-69 -82q-5 -6 -13 -6h-39q-6 0 -7.5 3.5z" />
    <glyph glyph-name="i" unicode="i" horiz-adv-x="248" 
d="M143.5 611.5q-13.5 13.5 -13.5 34.5q0 27 18.5 45.5t43.5 18.5q21 0 34.5 -13t13.5 -35q0 -27 -18 -45.5t-44 -18.5q-21 0 -34.5 13.5zM69 11l60 486q2 10 11 10h49q5 0 7.5 -3t1.5 -7l-60 -486q-2 -10 -11 -10h-49q-9 0 -9 10z" />
    <glyph glyph-name="dotlessi" unicode="&#x131;" horiz-adv-x="205" 
d="M50 10l59 486q1 4 4 7t7 3h50q10 0 8 -10l-59 -486q-1 -4 -4 -7t-7 -3h-50q-10 0 -8 10z" />
    <glyph glyph-name="iacute" unicode="&#xed;" horiz-adv-x="205" 
d="M50 10l59 486q1 4 4 7t7 3h50q10 0 8 -10l-59 -486q-1 -4 -4 -7t-7 -3h-50q-10 0 -8 10zM114 575.5q-2 3.5 2 8.5l72 109q3 7 12 7h44q6 0 7 -3.5t-3 -8.5l-79 -109q-7 -7 -13 -7h-35q-5 0 -7 3.5z" />
    <glyph glyph-name="ibreve" unicode="&#x12d;" horiz-adv-x="205" 
d="M50 10l59 486q1 4 4 7t7 3h50q10 0 8 -10l-59 -486q-1 -4 -4 -7t-7 -3h-50q-10 0 -8 10zM76 609.5q-30 28.5 -28 70.5q0 10 10 10h26q9 0 9 -8q0 -26 19 -43.5t47 -17.5t51 16.5t30 42.5q3 10 12 10h26q11 0 8 -9q-8 -43 -45.5 -71.5t-86.5 -28.5q-48 0 -78 28.5z" />
    <glyph glyph-name="icircumflex" unicode="&#xee;" horiz-adv-x="205" 
d="M50 10l59 486q1 4 4 7t7 3h50q10 0 8 -10l-59 -486q-1 -4 -4 -7t-7 -3h-50q-10 0 -8 10zM33.5 577.5q-1.5 3.5 2.5 8.5l91 108q5 6 14 6h56q8 0 12 -6l65 -108l2 -5q0 -7 -9 -7h-39q-10 0 -12 6l-48 82q-1 2 -3 2t-3 -2l-69 -82q-5 -6 -13 -6h-39q-6 0 -7.5 3.5z" />
    <glyph glyph-name="idieresis" unicode="&#xef;" horiz-adv-x="205" 
d="M50 10l59 486q1 4 4 7t7 3h50q10 0 8 -10l-59 -486q-1 -4 -4 -7t-7 -3h-50q-10 0 -8 10zM205 614.5q-13 13.5 -13 34.5q0 28 18 46t44 18q21 0 34.5 -13t13.5 -35q0 -27 -18 -45.5t-44 -18.5q-22 0 -35 13.5zM39 614.5q-13 13.5 -13 34.5q0 28 18 46t44 18q21 0 34.5 -13
t13.5 -35q0 -27 -18 -45.5t-44 -18.5q-22 0 -35 13.5z" />
    <glyph glyph-name="i.loclTRK" horiz-adv-x="205" 
d="M50 10l59 486q1 4 4 7t7 3h50q10 0 8 -10l-59 -486q-1 -4 -4 -7t-7 -3h-50q-10 0 -8 10zM121 611.5q-13 13.5 -13 34.5q0 28 18 46t44 18q21 0 34.5 -13t13.5 -35q0 -27 -18 -45.5t-44 -18.5q-22 0 -35 13.5z" />
    <glyph glyph-name="uni1ECB" unicode="&#x1ecb;" horiz-adv-x="248" 
d="M143.5 611.5q-13.5 13.5 -13.5 34.5q0 27 18.5 45.5t43.5 18.5q21 0 34.5 -13t13.5 -35q0 -27 -18 -45.5t-44 -18.5q-21 0 -34.5 13.5zM69 11l60 486q2 10 11 10h49q5 0 7.5 -3t1.5 -7l-60 -486q-2 -10 -11 -10h-49q-9 0 -9 10zM49 -171q-12 13 -12 34q0 25 17 42t41 17
q20 0 33 -12.5t13 -32.5q0 -25 -17.5 -43t-41.5 -18q-21 0 -33 13z" />
    <glyph glyph-name="igrave" unicode="&#xec;" horiz-adv-x="205" 
d="M50 10l59 486q1 4 4 7t7 3h50q10 0 8 -10l-59 -486q-1 -4 -4 -7t-7 -3h-50q-10 0 -8 10zM182 579q0 -7 -9 -7h-35q-6 0 -11 7l-52 109q-1 2 -1 6q0 6 8 6h44q9 0 10 -7l45 -109q1 -2 1 -5z" />
    <glyph glyph-name="uni1EC9" unicode="&#x1ec9;" horiz-adv-x="205" 
d="M50 10l59 486q1 4 4 7t7 3h50q10 0 8 -10l-59 -486q-1 -4 -4 -7t-7 -3h-50q-10 0 -8 10zM138.5 558.5q-1.5 3.5 0.5 7.5q8 15 16.5 24.5t22.5 22.5t21 23t9 25q2 14 -9 25t-27 11q-17 0 -28.5 -7.5t-28.5 -28.5q-8 -8 -14 -2l-14 10q-7 6 -1 14q22 29 42 41.5t51 12.5
q33 0 53 -18.5t20 -47.5q0 -26 -11.5 -43t-34.5 -37q-24 -22 -31 -35q-6 -7 -14 -6l-17 4q-4 1 -5.5 4.5z" />
    <glyph glyph-name="ij" unicode="&#x133;" horiz-adv-x="477" 
d="M143.5 611.5q-13.5 13.5 -13.5 34.5q0 27 18.5 45.5t43.5 18.5q21 0 34.5 -13t13.5 -35q0 -27 -18 -45.5t-44 -18.5q-21 0 -34.5 13.5zM69 11l60 486q2 10 11 10h49q5 0 7.5 -3t1.5 -7l-60 -486q-2 -10 -11 -10h-49q-9 0 -9 10zM372 611.5q-13 13.5 -13 34.5q0 28 18 46
t44 18q21 0 34.5 -13t13.5 -35q0 -27 -18 -45.5t-44 -18.5q-22 0 -35 13.5zM161 -198l5 41q2 10 12 10q104 1 116 103l66 540q2 10 11 10h49q5 0 7.5 -3t1.5 -7l-66 -540q-11 -85 -56.5 -124t-136.5 -40q-9 0 -9 10z" />
    <glyph glyph-name="imacron" unicode="&#x12b;" horiz-adv-x="205" 
d="M50 10l59 486q1 4 4 7t7 3h50q10 0 8 -10l-59 -486q-1 -4 -4 -7t-7 -3h-50q-10 0 -8 10zM28 604l4 31q0 4 3 7t7 3h242q10 0 8 -10l-3 -31q-2 -10 -11 -10h-242q-10 0 -8 10z" />
    <glyph glyph-name="iogonek" unicode="&#x12f;" horiz-adv-x="275" 
d="M97 10l59 486q1 4 4 7t7 3h50q10 0 8 -10l-59 -486q-1 -4 -4 -7t-7 -3h-50q-10 0 -8 10zM169 611.5q-13 13.5 -13 34.5q0 28 18 46t44 18q21 0 34.5 -13t13.5 -35q0 -27 -18 -45.5t-44 -18.5q-22 0 -35 13.5zM156 -181q-20 -5 -41 -5q-34 0 -56 16.5t-22 55.5
q0 57 70 110q7 4 13 4h27q7 0 7 -5q0 -3 -5 -7q-29 -23 -45.5 -47t-14.5 -47q1 -18 12.5 -27t29.5 -9q10 0 22 3l3 1q6 0 8 -9v-22q0 -9 -8 -12z" />
    <glyph glyph-name="itilde" unicode="&#x129;" horiz-adv-x="205" 
d="M50 10l59 486q1 4 4 7t7 3h50q10 0 8 -10l-59 -486q-1 -4 -4 -7t-7 -3h-50q-10 0 -8 10zM187 609q-13 6 -26 16q-16 10 -25.5 14.5t-20.5 4.5q-17 0 -30.5 -5.5t-26.5 -19.5q-6 -9 -13 -2l-16 18q-5 7 0 14q37 49 90 49q15 0 27 -5t21 -10.5t12 -7.5t12.5 -8t17.5 -9
t16 -3q31 0 55 28q7 10 13 2l16 -17q3 -3 3 -7t-4 -8q-17 -24 -41 -37t-49 -13q-18 0 -31 6z" />
    <glyph glyph-name="j" unicode="j" horiz-adv-x="238" 
d="M133 611.5q-13 13.5 -13 34.5q0 28 18 46t44 18q21 0 34.5 -13t13.5 -35q0 -27 -18 -45.5t-44 -18.5q-22 0 -35 13.5zM-78 -198l5 41q2 10 12 10q104 1 116 103l66 540q2 10 11 10h49q5 0 7.5 -3t1.5 -7l-66 -540q-11 -85 -56.5 -124t-136.5 -40q-9 0 -9 10z" />
    <glyph glyph-name="uni0237" unicode="&#x237;" horiz-adv-x="234" 
d="M-78 -198l5 41q2 10 12 10q104 1 116 103l66 540q2 10 11 10h49q5 0 7.5 -3t1.5 -7l-66 -540q-11 -85 -56.5 -124t-136.5 -40q-9 0 -9 10z" />
    <glyph glyph-name="jcircumflex" unicode="&#x135;" horiz-adv-x="234" 
d="M-78 -198l5 41q2 10 12 10q104 1 116 103l66 540q2 10 11 10h49q5 0 7.5 -3t1.5 -7l-66 -540q-11 -85 -56.5 -124t-136.5 -40q-9 0 -9 10zM44.5 577.5q-1.5 3.5 2.5 8.5l91 108q5 6 14 6h56q8 0 12 -6l65 -108l2 -5q0 -7 -9 -7h-39q-10 0 -12 6l-48 82q-1 2 -3 2t-3 -2
l-69 -82q-5 -6 -13 -6h-39q-6 0 -7.5 3.5z" />
    <glyph glyph-name="k" unicode="k" horiz-adv-x="486" 
d="M59 10l84 680q2 10 11 10h49q5 0 7.5 -3t1.5 -7l-50 -409q-1 -2 0.5 -3t3.5 1l233 222q5 5 12 5h59q5 0 6.5 -4t-2.5 -8l-142 -142q-2 -2 -1 -5l107 -335l1 -3q0 -9 -10 -9h-53q-8 0 -9 8l-90 292q0 1 -1.5 1.5t-2.5 -0.5l-121 -116q-3 -3 -3 -5l-21 -170q0 -4 -3 -7
t-8 -3h-49q-9 0 -9 10z" />
    <glyph glyph-name="uni01E9" unicode="&#x1e9;" horiz-adv-x="486" 
d="M59 10l84 680q2 10 11 10h49q5 0 7.5 -3t1.5 -7l-50 -409q-1 -2 0.5 -3t3.5 1l233 222q5 5 12 5h59q5 0 6.5 -4t-2.5 -8l-142 -142q-2 -2 -1 -5l107 -335l1 -3q0 -9 -10 -9h-53q-8 0 -9 8l-90 292q0 1 -1.5 1.5t-2.5 -0.5l-121 -116q-3 -3 -3 -5l-21 -170q0 -4 -3 -7
t-8 -3h-49q-9 0 -9 10zM215 885q0 7 9 7h39q10 0 12 -6l49 -82q1 -1 3 -1t3 1l68 82q5 6 13 6h39q6 0 7.5 -3.5t-2.5 -8.5l-92 -108q-5 -6 -14 -6h-56q-8 0 -12 6l-64 108z" />
    <glyph glyph-name="l" unicode="l" horiz-adv-x="223" 
d="M59 10l84 680q2 10 11 10h49q5 0 7.5 -3t1.5 -7l-84 -680q0 -4 -3 -7t-8 -3h-49q-9 0 -9 10z" />
    <glyph glyph-name="lacute" unicode="&#x13a;" horiz-adv-x="223" 
d="M59 10l84 680q2 10 11 10h49q5 0 7.5 -3t1.5 -7l-84 -680q0 -4 -3 -7t-8 -3h-49q-9 0 -9 10zM148 769.5q-2 3.5 2 8.5l72 109q3 7 12 7h44q6 0 7 -3.5t-3 -8.5l-79 -109q-7 -7 -13 -7h-35q-5 0 -7 3.5z" />
    <glyph glyph-name="lcaron" unicode="&#x13e;" horiz-adv-x="350" 
d="M59 10l84 680q2 10 11 10h49q5 0 7.5 -3t1.5 -7l-84 -680q0 -4 -3 -7t-8 -3h-49q-9 0 -9 10zM243 575.5q-2 3.5 2 8.5l72 109q3 7 12 7h44q6 0 7 -3.5t-3 -8.5l-79 -109q-7 -7 -13 -7h-35q-5 0 -7 3.5z" />
    <glyph glyph-name="uni013C" unicode="&#x13c;" horiz-adv-x="223" 
d="M59 10l84 680q2 10 11 10h49q5 0 7.5 -3t1.5 -7l-84 -680q0 -4 -3 -7t-8 -3h-49q-9 0 -9 10zM-27 -186.5q-2 3.5 2 8.5l72 109q3 7 12 7h44q6 0 7 -3.5t-3 -8.5l-79 -109q-7 -7 -13 -7h-35q-5 0 -7 3.5z" />
    <glyph glyph-name="ldot" unicode="&#x140;" horiz-adv-x="263" 
d="M79 10l84 680q2 10 11 10h49q5 0 7.5 -3t1.5 -7l-84 -680q0 -4 -3 -7t-8 -3h-49q-9 0 -9 10zM175 805.5q-13 13.5 -13 34.5q0 28 18 46t44 18q21 0 34.5 -13t13.5 -35q0 -27 -18 -45.5t-44 -18.5q-22 0 -35 13.5z" />
    <glyph glyph-name="lslash" unicode="&#x142;" horiz-adv-x="332" 
d="M338 411q0 -4 -6 -9l-112 -64q-2 -1 -4 -5l-39 -323q-2 -10 -11 -10h-50q-4 0 -6.5 3t-1.5 7l34 278q0 5 -4 3l-71 -41q-4 -2 -6 -2q-4 0 -8 6l-11 30l-2 5q0 5 6 9l102 58q3 2 3 5l40 329q1 4 4 7t7 3h50q10 0 8 -10l-35 -284q0 -2 1.5 -3t3.5 0l80 47l6 2q6 0 7 -6
l14 -30q1 -2 1 -5z" />
    <glyph glyph-name="m" unicode="m" horiz-adv-x="802" 
d="M719.5 476.5q36.5 -36.5 36.5 -101.5q0 -8 -2 -30l-41 -335q-2 -10 -11 -10h-48q-9 0 -9 10l40 321q1 7 1 20q0 46 -26 73t-71 27q-52 0 -87 -32t-42 -86l-40 -323q0 -4 -3 -7t-8 -3h-49q-9 0 -9 10l40 321q1 7 1 21q0 46 -26 72.5t-71 26.5q-51 0 -85.5 -32t-41.5 -86
l-40 -323q0 -4 -3 -7t-8 -3h-49q-9 0 -9 10l60 486q2 10 11 10h49q5 0 7.5 -3t1.5 -7l-5 -40q0 -2 1.5 -2.5t3.5 1.5q25 29 60 43.5t76 14.5q50 0 83.5 -21t47.5 -61q0 -2 1.5 -2t2.5 2q26 41 68 61.5t91 20.5q65 0 101.5 -36.5z" />
    <glyph glyph-name="n" unicode="n" horiz-adv-x="523" 
d="M435 474q40 -39 40 -106q0 -8 -2 -28l-40 -330q-2 -10 -11 -10h-50q-4 0 -6.5 3t-1.5 7l39 316q1 7 1 20q0 48 -27.5 76.5t-74.5 28.5q-54 0 -91 -34t-44 -89l-39 -318q0 -4 -3 -7t-8 -3h-49q-9 0 -9 10l60 486q2 10 11 10h49q5 0 7.5 -3t1.5 -7l-5 -43q-1 -2 0.5 -3
t3.5 1q24 31 59.5 46.5t78.5 15.5q70 0 110 -39z" />
    <glyph glyph-name="nacute" unicode="&#x144;" horiz-adv-x="523" 
d="M435 474q40 -39 40 -106q0 -8 -2 -28l-40 -330q-2 -10 -11 -10h-50q-4 0 -6.5 3t-1.5 7l39 316q1 7 1 20q0 48 -27.5 76.5t-74.5 28.5q-54 0 -91 -34t-44 -89l-39 -318q0 -4 -3 -7t-8 -3h-49q-9 0 -9 10l60 486q2 10 11 10h49q5 0 7.5 -3t1.5 -7l-5 -43q-1 -2 0.5 -3
t3.5 1q24 31 59.5 46.5t78.5 15.5q70 0 110 -39zM275 575.5q-2 3.5 2 8.5l72 109q3 7 12 7h44q6 0 7 -3.5t-3 -8.5l-79 -109q-7 -7 -13 -7h-35q-5 0 -7 3.5z" />
    <glyph glyph-name="ncaron" unicode="&#x148;" horiz-adv-x="523" 
d="M435 474q40 -39 40 -106q0 -8 -2 -28l-40 -330q-2 -10 -11 -10h-50q-4 0 -6.5 3t-1.5 7l39 316q1 7 1 20q0 48 -27.5 76.5t-74.5 28.5q-54 0 -91 -34t-44 -89l-39 -318q0 -4 -3 -7t-8 -3h-49q-9 0 -9 10l60 486q2 10 11 10h49q5 0 7.5 -3t1.5 -7l-5 -43q-1 -2 0.5 -3
t3.5 1q24 31 59.5 46.5t78.5 15.5q70 0 110 -39zM210 693q0 7 9 7h39q10 0 12 -6l49 -82q1 -1 3 -1t3 1l68 82q5 6 13 6h39q6 0 7.5 -3.5t-2.5 -8.5l-92 -108q-5 -6 -14 -6h-56q-8 0 -12 6l-64 108z" />
    <glyph glyph-name="eng" unicode="&#x14b;" horiz-adv-x="523" 
d="M458 206h1l-26 -214q-10 -82 -49.5 -122.5t-122.5 -42.5q-10 0 -8 10l4 39q2 10 11 10q84 6 95 104l1 7q1 2 0.5 3t-0.5 2v8l39 316q1 7 1 20q0 48 -27.5 76.5t-74.5 28.5q-54 0 -91 -34t-44 -89l-39 -318q0 -4 -3 -7t-8 -3h-49q-9 0 -9 10l60 486q2 10 11 10h49
q5 0 7.5 -3t1.5 -7l-5 -43q-1 -2 1 -3t3 1q50 62 138 62q70 0 110 -39t40 -106q0 -8 -2 -28l-16 -130z" />
    <glyph glyph-name="ntilde" unicode="&#xf1;" horiz-adv-x="523" 
d="M435 474q40 -39 40 -106q0 -8 -2 -28l-40 -330q-2 -10 -11 -10h-50q-4 0 -6.5 3t-1.5 7l39 316q1 7 1 20q0 48 -27.5 76.5t-74.5 28.5q-54 0 -91 -34t-44 -89l-39 -318q0 -4 -3 -7t-8 -3h-49q-9 0 -9 10l60 486q2 10 11 10h49q5 0 7.5 -3t1.5 -7l-5 -43q-1 -2 0.5 -3
t3.5 1q24 31 59.5 46.5t78.5 15.5q70 0 110 -39zM348 609q-13 6 -26 16q-16 10 -25.5 14.5t-20.5 4.5q-17 0 -30.5 -5.5t-26.5 -19.5q-6 -9 -13 -2l-16 18q-5 7 0 14q37 49 90 49q15 0 27 -5t21 -10.5t12 -7.5t12.5 -8t17.5 -9t16 -3q31 0 55 28q7 10 13 2l16 -17q3 -3 3 -7
t-4 -8q-17 -24 -41 -37t-49 -13q-18 0 -31 6z" />
    <glyph glyph-name="o" unicode="o" horiz-adv-x="529" 
d="M128 29q-46 37 -57 102q-3 21 -3 48q0 30 5 75q9 76 28 122q26 64 81.5 101t126.5 37q69 0 114.5 -37t56.5 -100q4 -19 4 -47q0 -22 -6 -76q-10 -80 -28 -123q-26 -65 -81 -102t-125 -37t-116 37zM334.5 80.5q36.5 26.5 53.5 71.5q13 34 21 101q6 47 6 78q0 16 -1 23
q-6 45 -36.5 71.5t-77.5 26.5t-83 -26.5t-54 -71.5q-12 -33 -20 -101q-6 -45 -6 -77q0 -17 1 -24q5 -45 35.5 -71.5t78.5 -26.5q46 0 82.5 26.5z" />
    <glyph glyph-name="oacute" unicode="&#xf3;" horiz-adv-x="520" 
d="M128 29q-46 37 -57 102q-3 21 -3 48q0 30 5 75q9 76 28 122q26 64 81.5 101t126.5 37q69 0 114.5 -37t56.5 -100q4 -19 4 -47q0 -22 -6 -76q-10 -80 -28 -123q-26 -65 -81 -102t-125 -37t-116 37zM334.5 80.5q36.5 26.5 53.5 71.5q13 34 21 101q6 47 6 78q0 16 -1 23
q-6 45 -36.5 71.5t-77.5 26.5t-83 -26.5t-54 -71.5q-12 -33 -20 -101q-6 -45 -6 -77q0 -17 1 -24q5 -45 35.5 -71.5t78.5 -26.5q46 0 82.5 26.5zM271 575.5q-2 3.5 2 8.5l72 109q3 7 12 7h44q6 0 7 -3.5t-3 -8.5l-79 -109q-7 -7 -13 -7h-35q-5 0 -7 3.5z" />
    <glyph glyph-name="obreve" unicode="&#x14f;" horiz-adv-x="520" 
d="M128 29q-46 37 -57 102q-3 21 -3 48q0 30 5 75q9 76 28 122q26 64 81.5 101t126.5 37q69 0 114.5 -37t56.5 -100q4 -19 4 -47q0 -22 -6 -76q-10 -80 -28 -123q-26 -65 -81 -102t-125 -37t-116 37zM334.5 80.5q36.5 26.5 53.5 71.5q13 34 21 101q6 47 6 78q0 16 -1 23
q-6 45 -36.5 71.5t-77.5 26.5t-83 -26.5t-54 -71.5q-12 -33 -20 -101q-6 -45 -6 -77q0 -17 1 -24q5 -45 35.5 -71.5t78.5 -26.5q46 0 82.5 26.5zM233 609.5q-30 28.5 -28 70.5q0 10 10 10h26q9 0 9 -8q0 -26 19 -43.5t47 -17.5t51 16.5t30 42.5q3 10 12 10h26q11 0 8 -9
q-8 -43 -45.5 -71.5t-86.5 -28.5q-48 0 -78 28.5z" />
    <glyph glyph-name="ocircumflex" unicode="&#xf4;" horiz-adv-x="520" 
d="M128 29q-46 37 -57 102q-3 21 -3 48q0 30 5 75q9 76 28 122q26 64 81.5 101t126.5 37q69 0 114.5 -37t56.5 -100q4 -19 4 -47q0 -22 -6 -76q-10 -80 -28 -123q-26 -65 -81 -102t-125 -37t-116 37zM334.5 80.5q36.5 26.5 53.5 71.5q13 34 21 101q6 47 6 78q0 16 -1 23
q-6 45 -36.5 71.5t-77.5 26.5t-83 -26.5t-54 -71.5q-12 -33 -20 -101q-6 -45 -6 -77q0 -17 1 -24q5 -45 35.5 -71.5t78.5 -26.5q46 0 82.5 26.5zM190.5 577.5q-1.5 3.5 2.5 8.5l91 108q5 6 14 6h56q8 0 12 -6l65 -108l2 -5q0 -7 -9 -7h-39q-10 0 -12 6l-48 82q-1 2 -3 2
t-3 -2l-69 -82q-5 -6 -13 -6h-39q-6 0 -7.5 3.5z" />
    <glyph glyph-name="uni1ED1" unicode="&#x1ed1;" horiz-adv-x="520" 
d="M128 29q-46 37 -57 102q-3 21 -3 48q0 30 5 75q9 76 28 122q26 64 81.5 101t126.5 37q69 0 114.5 -37t56.5 -100q4 -19 4 -47q0 -22 -6 -76q-10 -80 -28 -123q-26 -65 -81 -102t-125 -37t-116 37zM334.5 80.5q36.5 26.5 53.5 71.5q13 34 21 101q6 47 6 78q0 16 -1 23
q-6 45 -36.5 71.5t-77.5 26.5t-83 -26.5t-54 -71.5q-12 -33 -20 -101q-6 -45 -6 -77q0 -17 1 -24q5 -45 35.5 -71.5t78.5 -26.5q46 0 82.5 26.5zM190.5 577.5q-1.5 3.5 2.5 8.5l91 108q5 6 14 6h56q8 0 12 -6l65 -108l2 -5q0 -7 -9 -7h-39q-10 0 -12 6l-48 82q-1 2 -3 2
t-3 -2l-69 -82q-5 -6 -13 -6h-39q-6 0 -7.5 3.5zM441 651.5q-2 3.5 2 8.5l72 109q3 7 12 7h44q6 0 7 -3.5t-3 -8.5l-79 -109q-7 -7 -13 -7h-35q-5 0 -7 3.5z" />
    <glyph glyph-name="uni1ED9" unicode="&#x1ed9;" horiz-adv-x="520" 
d="M128 29q-46 37 -57 102q-3 21 -3 48q0 30 5 75q9 76 28 122q26 64 81.5 101t126.5 37q69 0 114.5 -37t56.5 -100q4 -19 4 -47q0 -22 -6 -76q-10 -80 -28 -123q-26 -65 -81 -102t-125 -37t-116 37zM334.5 80.5q36.5 26.5 53.5 71.5q13 34 21 101q6 47 6 78q0 16 -1 23
q-6 45 -36.5 71.5t-77.5 26.5t-83 -26.5t-54 -71.5q-12 -33 -20 -101q-6 -45 -6 -77q0 -17 1 -24q5 -45 35.5 -71.5t78.5 -26.5q46 0 82.5 26.5zM186 -171q-12 13 -12 34q0 25 17 42t41 17q20 0 33 -12.5t13 -32.5q0 -25 -17.5 -43t-41.5 -18q-21 0 -33 13zM190.5 577.5
q-1.5 3.5 2.5 8.5l91 108q5 6 14 6h56q8 0 12 -6l65 -108l2 -5q0 -7 -9 -7h-39q-10 0 -12 6l-48 82q-1 2 -3 2t-3 -2l-69 -82q-5 -6 -13 -6h-39q-6 0 -7.5 3.5z" />
    <glyph glyph-name="uni1ED3" unicode="&#x1ed3;" horiz-adv-x="520" 
d="M128 29q-46 37 -57 102q-3 21 -3 48q0 30 5 75q9 76 28 122q26 64 81.5 101t126.5 37q69 0 114.5 -37t56.5 -100q4 -19 4 -47q0 -22 -6 -76q-10 -80 -28 -123q-26 -65 -81 -102t-125 -37t-116 37zM334.5 80.5q36.5 26.5 53.5 71.5q13 34 21 101q6 47 6 78q0 16 -1 23
q-6 45 -36.5 71.5t-77.5 26.5t-83 -26.5t-54 -71.5q-12 -33 -20 -101q-6 -45 -6 -77q0 -17 1 -24q5 -45 35.5 -71.5t78.5 -26.5q46 0 82.5 26.5zM190.5 577.5q-1.5 3.5 2.5 8.5l91 108q5 6 14 6h56q8 0 12 -6l65 -108l2 -5q0 -7 -9 -7h-39q-10 0 -12 6l-48 82q-1 2 -3 2
t-3 -2l-69 -82q-5 -6 -13 -6h-39q-6 0 -7.5 3.5zM487 695q0 -7 -9 -7h-35q-6 0 -11 7l-52 109q-1 2 -1 6q0 6 8 6h44q9 0 10 -7l45 -109q1 -2 1 -5z" />
    <glyph glyph-name="uni1ED5" unicode="&#x1ed5;" horiz-adv-x="520" 
d="M128 29q-46 37 -57 102q-3 21 -3 48q0 30 5 75q9 76 28 122q26 64 81.5 101t126.5 37q69 0 114.5 -37t56.5 -100q4 -19 4 -47q0 -22 -6 -76q-10 -80 -28 -123q-26 -65 -81 -102t-125 -37t-116 37zM334.5 80.5q36.5 26.5 53.5 71.5q13 34 21 101q6 47 6 78q0 16 -1 23
q-6 45 -36.5 71.5t-77.5 26.5t-83 -26.5t-54 -71.5q-12 -33 -20 -101q-6 -45 -6 -77q0 -17 1 -24q5 -45 35.5 -71.5t78.5 -26.5q46 0 82.5 26.5zM190.5 577.5q-1.5 3.5 2.5 8.5l91 108q5 6 14 6h56q8 0 12 -6l65 -108l2 -5q0 -7 -9 -7h-39q-10 0 -12 6l-48 82q-1 2 -3 2
t-3 -2l-69 -82q-5 -6 -13 -6h-39q-6 0 -7.5 3.5zM423.5 678.5q-1.5 3.5 0.5 7.5q8 15 16.5 24.5t22.5 22.5t21 23t9 25q2 14 -9 25t-27 11q-17 0 -28.5 -7.5t-28.5 -28.5q-8 -8 -14 -2l-14 10q-7 6 -1 14q22 29 42 41.5t51 12.5q33 0 53 -18.5t20 -47.5q0 -26 -11.5 -43
t-34.5 -37q-24 -22 -31 -35q-6 -7 -14 -6l-17 4q-4 1 -5.5 4.5z" />
    <glyph glyph-name="uni1ED7" unicode="&#x1ed7;" horiz-adv-x="520" 
d="M128 29q-46 37 -57 102q-3 21 -3 48q0 30 5 75q9 76 28 122q26 64 81.5 101t126.5 37q69 0 114.5 -37t56.5 -100q4 -19 4 -47q0 -22 -6 -76q-10 -80 -28 -123q-26 -65 -81 -102t-125 -37t-116 37zM334.5 80.5q36.5 26.5 53.5 71.5q13 34 21 101q6 47 6 78q0 16 -1 23
q-6 45 -36.5 71.5t-77.5 26.5t-83 -26.5t-54 -71.5q-12 -33 -20 -101q-6 -45 -6 -77q0 -17 1 -24q5 -45 35.5 -71.5t78.5 -26.5q46 0 82.5 26.5zM190.5 577.5q-1.5 3.5 2.5 8.5l91 108q5 6 14 6h56q8 0 12 -6l65 -108l2 -5q0 -7 -9 -7h-39q-10 0 -12 6l-48 82q-1 2 -3 2
t-3 -2l-69 -82q-5 -6 -13 -6h-39q-6 0 -7.5 3.5zM360 737q-13 6 -26 16q-16 10 -25.5 14.5t-20.5 4.5q-17 0 -30.5 -5.5t-26.5 -19.5q-6 -9 -13 -2l-16 18q-5 7 0 14q37 49 90 49q15 0 27 -5t21 -10.5t12 -7.5t12.5 -8t17.5 -9t16 -3q31 0 55 28q7 10 13 2l16 -17q3 -3 3 -7
t-4 -8q-17 -24 -41 -37t-49 -13q-18 0 -31 6z" />
    <glyph glyph-name="odieresis" unicode="&#xf6;" horiz-adv-x="520" 
d="M128 29q-46 37 -57 102q-3 21 -3 48q0 30 5 75q9 76 28 122q26 64 81.5 101t126.5 37q69 0 114.5 -37t56.5 -100q4 -19 4 -47q0 -22 -6 -76q-10 -80 -28 -123q-26 -65 -81 -102t-125 -37t-116 37zM334.5 80.5q36.5 26.5 53.5 71.5q13 34 21 101q6 47 6 78q0 16 -1 23
q-6 45 -36.5 71.5t-77.5 26.5t-83 -26.5t-54 -71.5q-12 -33 -20 -101q-6 -45 -6 -77q0 -17 1 -24q5 -45 35.5 -71.5t78.5 -26.5q46 0 82.5 26.5zM362 614.5q-13 13.5 -13 34.5q0 28 18 46t44 18q21 0 34.5 -13t13.5 -35q0 -27 -18 -45.5t-44 -18.5q-22 0 -35 13.5z
M196 614.5q-13 13.5 -13 34.5q0 28 18 46t44 18q21 0 34.5 -13t13.5 -35q0 -27 -18 -45.5t-44 -18.5q-22 0 -35 13.5z" />
    <glyph glyph-name="uni1ECD" unicode="&#x1ecd;" horiz-adv-x="520" 
d="M128 29q-46 37 -57 102q-3 21 -3 48q0 30 5 75q9 76 28 122q26 64 81.5 101t126.5 37q69 0 114.5 -37t56.5 -100q4 -19 4 -47q0 -22 -6 -76q-10 -80 -28 -123q-26 -65 -81 -102t-125 -37t-116 37zM334.5 80.5q36.5 26.5 53.5 71.5q13 34 21 101q6 47 6 78q0 16 -1 23
q-6 45 -36.5 71.5t-77.5 26.5t-83 -26.5t-54 -71.5q-12 -33 -20 -101q-6 -45 -6 -77q0 -17 1 -24q5 -45 35.5 -71.5t78.5 -26.5q46 0 82.5 26.5zM186 -171q-12 13 -12 34q0 25 17 42t41 17q20 0 33 -12.5t13 -32.5q0 -25 -17.5 -43t-41.5 -18q-21 0 -33 13z" />
    <glyph glyph-name="ograve" unicode="&#xf2;" horiz-adv-x="520" 
d="M128 29q-46 37 -57 102q-3 21 -3 48q0 30 5 75q9 76 28 122q26 64 81.5 101t126.5 37q69 0 114.5 -37t56.5 -100q4 -19 4 -47q0 -22 -6 -76q-10 -80 -28 -123q-26 -65 -81 -102t-125 -37t-116 37zM334.5 80.5q36.5 26.5 53.5 71.5q13 34 21 101q6 47 6 78q0 16 -1 23
q-6 45 -36.5 71.5t-77.5 26.5t-83 -26.5t-54 -71.5q-12 -33 -20 -101q-6 -45 -6 -77q0 -17 1 -24q5 -45 35.5 -71.5t78.5 -26.5q46 0 82.5 26.5zM339 579q0 -7 -9 -7h-35q-6 0 -11 7l-52 109q-1 2 -1 6q0 6 8 6h44q9 0 10 -7l45 -109q1 -2 1 -5z" />
    <glyph glyph-name="uni1ECF" unicode="&#x1ecf;" horiz-adv-x="520" 
d="M128 29q-46 37 -57 102q-3 21 -3 48q0 30 5 75q9 76 28 122q26 64 81.5 101t126.5 37q69 0 114.5 -37t56.5 -100q4 -19 4 -47q0 -22 -6 -76q-10 -80 -28 -123q-26 -65 -81 -102t-125 -37t-116 37zM334.5 80.5q36.5 26.5 53.5 71.5q13 34 21 101q6 47 6 78q0 16 -1 23
q-6 45 -36.5 71.5t-77.5 26.5t-83 -26.5t-54 -71.5q-12 -33 -20 -101q-6 -45 -6 -77q0 -17 1 -24q5 -45 35.5 -71.5t78.5 -26.5q46 0 82.5 26.5zM295.5 558.5q-1.5 3.5 0.5 7.5q8 15 16.5 24.5t22.5 22.5t21 23t9 25q2 14 -9 25t-27 11q-17 0 -28.5 -7.5t-28.5 -28.5
q-8 -8 -14 -2l-14 10q-7 6 -1 14q22 29 42 41.5t51 12.5q33 0 53 -18.5t20 -47.5q0 -26 -11.5 -43t-34.5 -37q-24 -22 -31 -35q-6 -7 -14 -6l-17 4q-4 1 -5.5 4.5z" />
    <glyph glyph-name="ohorn" unicode="&#x1a1;" horiz-adv-x="520" 
d="M484 330q0 -22 -6 -76q-10 -80 -28 -123q-26 -65 -81 -102t-125 -37t-116 37t-57 102q-3 21 -3 48q0 30 5 75q9 76 28 122q26 64 81.5 101t126.5 37q24 0 56 -7q1 -1 4 -1q27 4 48 22t28 49q1 10 11 10h27q5 0 7 -3t1 -7q-6 -32 -23.5 -56t-42.5 -38q-4 -2 -2 -6
q47 -37 57 -100q4 -19 4 -47zM409 253q6 47 6 78q0 16 -1 23q-6 45 -36.5 71.5t-77.5 26.5t-83 -26.5t-54 -71.5q-12 -33 -20 -101q-6 -45 -6 -77q0 -17 1 -24q5 -45 35.5 -71.5t78.5 -26.5q46 0 82.5 26.5t53.5 71.5q13 34 21 101z" />
    <glyph glyph-name="uni1EDB" unicode="&#x1edb;" horiz-adv-x="520" 
d="M484 330q0 -22 -6 -76q-10 -80 -28 -123q-26 -65 -81 -102t-125 -37t-116 37t-57 102q-3 21 -3 48q0 30 5 75q9 76 28 122q26 64 81.5 101t126.5 37q24 0 56 -7q1 -1 4 -1q27 4 48 22t28 49q1 10 11 10h27q5 0 7 -3t1 -7q-6 -32 -23.5 -56t-42.5 -38q-4 -2 -2 -6
q47 -37 57 -100q4 -19 4 -47zM409 253q6 47 6 78q0 16 -1 23q-6 45 -36.5 71.5t-77.5 26.5t-83 -26.5t-54 -71.5q-12 -33 -20 -101q-6 -45 -6 -77q0 -17 1 -24q5 -45 35.5 -71.5t78.5 -26.5q46 0 82.5 26.5t53.5 71.5q13 34 21 101zM271 575.5q-2 3.5 2 8.5l72 109q3 7 12 7
h44q6 0 7 -3.5t-3 -8.5l-79 -109q-7 -7 -13 -7h-35q-5 0 -7 3.5z" />
    <glyph glyph-name="uni1EE3" unicode="&#x1ee3;" horiz-adv-x="520" 
d="M484 330q0 -22 -6 -76q-10 -80 -28 -123q-26 -65 -81 -102t-125 -37t-116 37t-57 102q-3 21 -3 48q0 30 5 75q9 76 28 122q26 64 81.5 101t126.5 37q24 0 56 -7q1 -1 4 -1q27 4 48 22t28 49q1 10 11 10h27q5 0 7 -3t1 -7q-6 -32 -23.5 -56t-42.5 -38q-4 -2 -2 -6
q47 -37 57 -100q4 -19 4 -47zM409 253q6 47 6 78q0 16 -1 23q-6 45 -36.5 71.5t-77.5 26.5t-83 -26.5t-54 -71.5q-12 -33 -20 -101q-6 -45 -6 -77q0 -17 1 -24q5 -45 35.5 -71.5t78.5 -26.5q46 0 82.5 26.5t53.5 71.5q13 34 21 101zM186 -171q-12 13 -12 34q0 25 17 42
t41 17q20 0 33 -12.5t13 -32.5q0 -25 -17.5 -43t-41.5 -18q-21 0 -33 13z" />
    <glyph glyph-name="uni1EDD" unicode="&#x1edd;" horiz-adv-x="520" 
d="M484 330q0 -22 -6 -76q-10 -80 -28 -123q-26 -65 -81 -102t-125 -37t-116 37t-57 102q-3 21 -3 48q0 30 5 75q9 76 28 122q26 64 81.5 101t126.5 37q24 0 56 -7q1 -1 4 -1q27 4 48 22t28 49q1 10 11 10h27q5 0 7 -3t1 -7q-6 -32 -23.5 -56t-42.5 -38q-4 -2 -2 -6
q47 -37 57 -100q4 -19 4 -47zM409 253q6 47 6 78q0 16 -1 23q-6 45 -36.5 71.5t-77.5 26.5t-83 -26.5t-54 -71.5q-12 -33 -20 -101q-6 -45 -6 -77q0 -17 1 -24q5 -45 35.5 -71.5t78.5 -26.5q46 0 82.5 26.5t53.5 71.5q13 34 21 101zM339 579q0 -7 -9 -7h-35q-6 0 -11 7
l-52 109q-1 2 -1 6q0 6 8 6h44q9 0 10 -7l45 -109q1 -2 1 -5z" />
    <glyph glyph-name="uni1EDF" unicode="&#x1edf;" horiz-adv-x="520" 
d="M484 330q0 -22 -6 -76q-10 -80 -28 -123q-26 -65 -81 -102t-125 -37t-116 37t-57 102q-3 21 -3 48q0 30 5 75q9 76 28 122q26 64 81.5 101t126.5 37q24 0 56 -7q1 -1 4 -1q27 4 48 22t28 49q1 10 11 10h27q5 0 7 -3t1 -7q-6 -32 -23.5 -56t-42.5 -38q-4 -2 -2 -6
q47 -37 57 -100q4 -19 4 -47zM409 253q6 47 6 78q0 16 -1 23q-6 45 -36.5 71.5t-77.5 26.5t-83 -26.5t-54 -71.5q-12 -33 -20 -101q-6 -45 -6 -77q0 -17 1 -24q5 -45 35.5 -71.5t78.5 -26.5q46 0 82.5 26.5t53.5 71.5q13 34 21 101zM295.5 558.5q-1.5 3.5 0.5 7.5
q8 15 16.5 24.5t22.5 22.5t21 23t9 25q2 14 -9 25t-27 11q-17 0 -28.5 -7.5t-28.5 -28.5q-8 -8 -14 -2l-14 10q-7 6 -1 14q22 29 42 41.5t51 12.5q33 0 53 -18.5t20 -47.5q0 -26 -11.5 -43t-34.5 -37q-24 -22 -31 -35q-6 -7 -14 -6l-17 4q-4 1 -5.5 4.5z" />
    <glyph glyph-name="uni1EE1" unicode="&#x1ee1;" horiz-adv-x="520" 
d="M484 330q0 -22 -6 -76q-10 -80 -28 -123q-26 -65 -81 -102t-125 -37t-116 37t-57 102q-3 21 -3 48q0 30 5 75q9 76 28 122q26 64 81.5 101t126.5 37q24 0 56 -7q1 -1 4 -1q27 4 48 22t28 49q1 10 11 10h27q5 0 7 -3t1 -7q-6 -32 -23.5 -56t-42.5 -38q-4 -2 -2 -6
q47 -37 57 -100q4 -19 4 -47zM409 253q6 47 6 78q0 16 -1 23q-6 45 -36.5 71.5t-77.5 26.5t-83 -26.5t-54 -71.5q-12 -33 -20 -101q-6 -45 -6 -77q0 -17 1 -24q5 -45 35.5 -71.5t78.5 -26.5q46 0 82.5 26.5t53.5 71.5q13 34 21 101zM332 613q-13 6 -26 16q-16 10 -25.5 14.5
t-20.5 4.5q-17 0 -30.5 -5.5t-26.5 -19.5q-6 -9 -13 -2l-16 18q-5 7 0 14q37 49 90 49q15 0 27 -5t21 -10.5t12 -7.5t12.5 -8t17.5 -9t16 -3q31 0 55 28q7 10 13 2l16 -17q3 -3 3 -7t-4 -8q-17 -24 -41 -37t-49 -13q-18 0 -31 6z" />
    <glyph glyph-name="ohungarumlaut" unicode="&#x151;" horiz-adv-x="520" 
d="M128 29q-46 37 -57 102q-3 21 -3 48q0 30 5 75q9 76 28 122q26 64 81.5 101t126.5 37q69 0 114.5 -37t56.5 -100q4 -19 4 -47q0 -22 -6 -76q-10 -80 -28 -123q-26 -65 -81 -102t-125 -37t-116 37zM334.5 80.5q36.5 26.5 53.5 71.5q13 34 21 101q6 47 6 78q0 16 -1 23
q-6 45 -36.5 71.5t-77.5 26.5t-83 -26.5t-54 -71.5q-12 -33 -20 -101q-6 -45 -6 -77q0 -17 1 -24q5 -45 35.5 -71.5t78.5 -26.5q46 0 82.5 26.5zM202 575.5q-2 3.5 1 8.5l68 109q4 7 12 7h45q6 0 7.5 -3.5t-2.5 -8.5l-71 -109q-4 -7 -13 -7h-40q-5 0 -7 3.5zM360.5 575.5
q-2.5 3.5 0.5 8.5l71 109q4 7 12 7h42q6 0 7.5 -3.5t-1.5 -8.5l-73 -109q-5 -7 -13 -7h-38q-5 0 -7.5 3.5z" />
    <glyph glyph-name="omacron" unicode="&#x14d;" horiz-adv-x="520" 
d="M128 29q-46 37 -57 102q-3 21 -3 48q0 30 5 75q9 76 28 122q26 64 81.5 101t126.5 37q69 0 114.5 -37t56.5 -100q4 -19 4 -47q0 -22 -6 -76q-10 -80 -28 -123q-26 -65 -81 -102t-125 -37t-116 37zM334.5 80.5q36.5 26.5 53.5 71.5q13 34 21 101q6 47 6 78q0 16 -1 23
q-6 45 -36.5 71.5t-77.5 26.5t-83 -26.5t-54 -71.5q-12 -33 -20 -101q-6 -45 -6 -77q0 -17 1 -24q5 -45 35.5 -71.5t78.5 -26.5q46 0 82.5 26.5zM185 604l4 31q0 4 3 7t7 3h242q10 0 8 -10l-3 -31q-2 -10 -11 -10h-242q-10 0 -8 10z" />
    <glyph glyph-name="oslash" unicode="&#xf8;" horiz-adv-x="512" 
d="M478 333q0 -31 -5 -79q-10 -80 -28 -123q-27 -65 -82 -102t-124 -37q-67 0 -111 33q-4 2 -5 -1l-37 -47q-6 -9 -14 -3l-31 28q-7 7 -1 14l43 55q3 3 1 6q-12 22 -17 54q-4 20 -4 51q0 29 5 72q10 81 28 122q26 64 81 101t127 37q59 0 100 -27q4 -2 5 1l37 47q8 9 14 3
l31 -28q7 -6 2 -14l-41 -51q-1 -3 0 -6q15 -24 23 -62q3 -19 3 -44zM134 144q1 -2 3 -2t3 1l222 285q2 4 -1 5q-29 19 -67 19q-47 0 -83 -26.5t-53 -71.5q-13 -31 -21 -101q-5 -48 -5 -76q0 -18 1 -25zM404 253q5 50 5 76q0 18 -1 25t-5 21q-1 4 -5 0l-228 -291q-2 -4 1 -5
q30 -25 75 -25q47 0 83 26.5t53 71.5q13 32 22 101z" />
    <glyph glyph-name="oslashacute" unicode="&#x1ff;" horiz-adv-x="512" 
d="M478 333q0 -31 -5 -79q-10 -80 -28 -123q-27 -65 -82 -102t-124 -37q-67 0 -111 33q-4 2 -5 -1l-37 -47q-6 -9 -14 -3l-31 28q-7 7 -1 14l43 55q3 3 1 6q-12 22 -17 54q-4 20 -4 51q0 29 5 72q10 81 28 122q26 64 81 101t127 37q59 0 100 -27q4 -2 5 1l37 47q8 9 14 3
l31 -28q7 -6 2 -14l-41 -51q-1 -3 0 -6q15 -24 23 -62q3 -19 3 -44zM134 144q1 -2 3 -2t3 1l222 285q2 4 -1 5q-29 19 -67 19q-47 0 -83 -26.5t-53 -71.5q-13 -31 -21 -101q-5 -48 -5 -76q0 -18 1 -25zM404 253q5 50 5 76q0 18 -1 25t-5 21q-1 4 -5 0l-228 -291q-2 -4 1 -5
q30 -25 75 -25q47 0 83 26.5t53 71.5q13 32 22 101zM268 575.5q-2 3.5 2 8.5l72 109q3 7 12 7h44q6 0 7 -3.5t-3 -8.5l-79 -109q-7 -7 -13 -7h-35q-5 0 -7 3.5z" />
    <glyph glyph-name="otilde" unicode="&#xf5;" horiz-adv-x="520" 
d="M128 29q-46 37 -57 102q-3 21 -3 48q0 30 5 75q9 76 28 122q26 64 81.5 101t126.5 37q69 0 114.5 -37t56.5 -100q4 -19 4 -47q0 -22 -6 -76q-10 -80 -28 -123q-26 -65 -81 -102t-125 -37t-116 37zM334.5 80.5q36.5 26.5 53.5 71.5q13 34 21 101q6 47 6 78q0 16 -1 23
q-6 45 -36.5 71.5t-77.5 26.5t-83 -26.5t-54 -71.5q-12 -33 -20 -101q-6 -45 -6 -77q0 -17 1 -24q5 -45 35.5 -71.5t78.5 -26.5q46 0 82.5 26.5zM344 609q-13 6 -26 16q-16 10 -25.5 14.5t-20.5 4.5q-17 0 -30.5 -5.5t-26.5 -19.5q-6 -9 -13 -2l-16 18q-5 7 0 14
q37 49 90 49q15 0 27 -5t21 -10.5t12 -7.5t12.5 -8t17.5 -9t16 -3q31 0 55 28q7 10 13 2l16 -17q3 -3 3 -7t-4 -8q-17 -24 -41 -37t-49 -13q-18 0 -31 6z" />
    <glyph glyph-name="oe" unicode="&#x153;" horiz-adv-x="832" 
d="M651 73.5q35 20.5 54 54.5q6 8 13 4l30 -20q8 -5 2 -14q-29 -49 -78.5 -77.5t-109.5 -28.5q-53 0 -92 23t-59 64q-2 3 -5 0q-31 -40 -75.5 -63.5t-95.5 -23.5q-68 0 -112 37.5t-55 100.5q-2 20 -2 30q0 22 3.5 53t4.5 41q5 44 10.5 72t14.5 51q24 62 78 99.5t122 37.5
q50 0 89 -23.5t60 -63.5q3 -3 6 0q30 40 74 63.5t94 23.5q69 0 115 -38.5t54 -99.5q2 -20 2 -31q0 -27 -9 -102q0 -5 -3 -8t-8 -3h-306q-4 0 -4 -4q-5 -40 -5 -58q0 -13 1 -18q4 -46 34.5 -72.5t83.5 -26.5q39 0 74 20.5zM392 254q7 61 7 81q0 14 -1 19q-3 44 -31.5 71
t-75.5 27q-46 0 -80.5 -27t-49.5 -71q-9 -25 -18 -100q-7 -65 -7 -84q0 -52 28 -84t78 -32q46 0 81.5 27t50.5 71q10 30 18 102zM533 425q-35 -27 -49 -71q-7 -18 -14 -68q-1 -4 3 -4h243q4 0 4 4q3 35 3 59q0 47 -29.5 77t-79.5 30q-46 0 -81 -27z" />
    <glyph glyph-name="p" unicode="p" horiz-adv-x="536" 
d="M490 328q0 -28 -5 -75q-9 -79 -28 -124q-25 -64 -75.5 -100.5t-120.5 -36.5q-39 0 -68.5 15.5t-47.5 44.5q-1 2 -3 1.5t-2 -2.5l-29 -235q0 -4 -3 -7t-8 -3h-49q-9 0 -9 10l84 680q2 10 11 10h49q9 0 9 -10l-5 -42q-1 -2 0.5 -2.5t3.5 1.5q25 29 59 45t72 16
q68 0 109.5 -36t51.5 -98q4 -21 4 -52zM400.5 177q8.5 28 14.5 76q5 35 5 68q0 27 -7 53q-8 36 -35 57t-67 21q-39 0 -68.5 -21t-45.5 -56q-11 -21 -18 -47.5t-13 -74.5q-5 -36 -5 -70q0 -28 7 -54q8 -34 32 -54.5t61 -20.5q39 0 70 20t47 53q14 22 22.5 50z" />
    <glyph glyph-name="thorn" unicode="&#xfe;" horiz-adv-x="523" 
d="M481 342q0 -34 -8 -90q-5 -45 -10 -71.5t-13 -49.5q-23 -63 -74.5 -101t-116.5 -38q-43 0 -73.5 18t-46.5 50q-1 3 -2.5 2.5t-2.5 -3.5l-30 -249q-2 -10 -11 -10h-50q-4 0 -6.5 3t-1.5 7l108 880q2 10 11 10h49q5 0 7.5 -3t1.5 -7l-30 -242q0 -3 1.5 -3t2.5 2
q51 67 135 67q66 0 107.5 -37t49.5 -96q3 -18 3 -39zM392 186q4 19 10 67q7 60 7 80q0 9 -2 23q-4 42 -32.5 69t-75.5 27q-45 0 -78 -25.5t-47 -64.5q-1 -3 -1 -7l-2 -4l-1 -2l-24 -193l1 -4q0 -1 -0.5 -2t0.5 -2q4 -41 30.5 -67.5t72.5 -26.5q47 0 83.5 27t48.5 69
q6 17 10 36z" />
    <glyph glyph-name="q" unicode="q" horiz-adv-x="536" 
d="M427 503q3 3 8 3h49q9 0 9 -10l-84 -680q-2 -10 -11 -10h-49q-5 0 -7.5 3t-1.5 7l29 235q0 5 -4 1q-26 -29 -59.5 -44.5t-71.5 -15.5q-69 0 -111 36.5t-52 100.5q-3 18 -3 38q0 30 7 86q10 82 29 127q25 62 75.5 98t118.5 36q38 0 68 -16t48 -45q3 -5 5 1l5 42q0 4 3 7z
M379.5 178q7.5 27 13.5 75q5 38 5 71q0 31 -7 51q-8 35 -32 56t-62 21q-40 0 -72.5 -21t-48.5 -57q-12 -21 -19 -47.5t-13 -73.5q-5 -43 -5 -64q0 -35 11 -62q9 -33 35 -53t64 -20t66.5 20t44.5 55q12 22 19.5 49z" />
    <glyph glyph-name="r" unicode="r" horiz-adv-x="353" 
d="M373 498q6 -4 4 -13l-17 -49q-5 -10 -13 -6q-16 7 -37 7l-13 -1q-51 -2 -88 -38.5t-44 -92.5l-37 -295q0 -4 -3 -7t-8 -3h-49q-9 0 -9 10l60 486q2 10 11 10h49q5 0 7.5 -3t1.5 -7l-8 -61q0 -3 1.5 -3.5t3.5 1.5q24 37 58 57.5t76 20.5q32 0 54 -13z" />
    <glyph glyph-name="racute" unicode="&#x155;" horiz-adv-x="353" 
d="M373 498q6 -4 4 -13l-17 -49q-5 -10 -13 -6q-16 7 -37 7l-13 -1q-51 -2 -88 -38.5t-44 -92.5l-37 -295q0 -4 -3 -7t-8 -3h-49q-9 0 -9 10l60 486q2 10 11 10h49q5 0 7.5 -3t1.5 -7l-8 -61q0 -3 1.5 -3.5t3.5 1.5q24 37 58 57.5t76 20.5q32 0 54 -13zM222 575.5
q-2 3.5 2 8.5l72 109q3 7 12 7h44q6 0 7 -3.5t-3 -8.5l-79 -109q-7 -7 -13 -7h-35q-5 0 -7 3.5z" />
    <glyph glyph-name="rcaron" unicode="&#x159;" horiz-adv-x="353" 
d="M373 498q6 -4 4 -13l-17 -49q-5 -10 -13 -6q-16 7 -37 7l-13 -1q-51 -2 -88 -38.5t-44 -92.5l-37 -295q0 -4 -3 -7t-8 -3h-49q-9 0 -9 10l60 486q2 10 11 10h49q5 0 7.5 -3t1.5 -7l-8 -61q0 -3 1.5 -3.5t3.5 1.5q24 37 58 57.5t76 20.5q32 0 54 -13zM156 693q0 7 9 7h39
q10 0 12 -6l49 -82q1 -1 3 -1t3 1l68 82q5 6 13 6h39q6 0 7.5 -3.5t-2.5 -8.5l-92 -108q-5 -6 -14 -6h-56q-8 0 -12 6l-64 108z" />
    <glyph glyph-name="s" unicode="s" horiz-adv-x="467" 
d="M96 29q-46 34 -46 86q0 8 1 13l1 12q2 10 11 10h47q4 0 6.5 -3t1.5 -7l-1 -8q-3 -21 10 -40t38.5 -30.5t58.5 -11.5q53 0 88.5 26.5t35.5 65.5q0 22 -14.5 36t-34 22t-62.5 22q-49 16 -80.5 30.5t-53 39.5t-21.5 63q0 10 1 16q8 64 61.5 102t132.5 38q76 0 120.5 -34.5
t44.5 -88.5q0 -10 -1 -15l-1 -3q-2 -10 -11 -10h-45q-5 0 -7.5 3t-1.5 7l1 3q4 34 -25 57t-82 23q-52 0 -85.5 -23t-33.5 -62q0 -30 26 -46t82 -34q52 -16 83 -29.5t54 -39t23 -64.5q0 -11 -1 -17q-8 -64 -62.5 -103.5t-135.5 -39.5q-77 0 -123 34z" />
    <glyph glyph-name="sacute" unicode="&#x15b;" horiz-adv-x="470" 
d="M96 29q-46 34 -46 86q0 8 1 13l1 12q2 10 11 10h47q4 0 6.5 -3t1.5 -7l-1 -8q-3 -21 10 -40t38.5 -30.5t58.5 -11.5q53 0 88.5 26.5t35.5 65.5q0 22 -14.5 36t-34 22t-62.5 22q-49 16 -80.5 30.5t-53 39.5t-21.5 63q0 10 1 16q8 64 61.5 102t132.5 38q76 0 120.5 -34.5
t44.5 -88.5q0 -10 -1 -15l-1 -3q-2 -10 -11 -10h-45q-5 0 -7.5 3t-1.5 7l1 3q4 34 -25 57t-82 23q-52 0 -85.5 -23t-33.5 -62q0 -30 26 -46t82 -34q52 -16 83 -29.5t54 -39t23 -64.5q0 -11 -1 -17q-8 -64 -62.5 -103.5t-135.5 -39.5q-77 0 -123 34zM247 575.5q-2 3.5 2 8.5
l72 109q3 7 12 7h44q6 0 7 -3.5t-3 -8.5l-79 -109q-7 -7 -13 -7h-35q-5 0 -7 3.5z" />
    <glyph glyph-name="scaron" unicode="&#x161;" horiz-adv-x="470" 
d="M96 29q-46 34 -46 86q0 8 1 13l1 12q2 10 11 10h47q4 0 6.5 -3t1.5 -7l-1 -8q-3 -21 10 -40t38.5 -30.5t58.5 -11.5q53 0 88.5 26.5t35.5 65.5q0 22 -14.5 36t-34 22t-62.5 22q-49 16 -80.5 30.5t-53 39.5t-21.5 63q0 10 1 16q8 64 61.5 102t132.5 38q76 0 120.5 -34.5
t44.5 -88.5q0 -10 -1 -15l-1 -3q-2 -10 -11 -10h-45q-5 0 -7.5 3t-1.5 7l1 3q4 34 -25 57t-82 23q-52 0 -85.5 -23t-33.5 -62q0 -30 26 -46t82 -34q52 -16 83 -29.5t54 -39t23 -64.5q0 -11 -1 -17q-8 -64 -62.5 -103.5t-135.5 -39.5q-77 0 -123 34zM182 693q0 7 9 7h39
q10 0 12 -6l49 -82q1 -1 3 -1t3 1l68 82q5 6 13 6h39q6 0 7.5 -3.5t-2.5 -8.5l-92 -108q-5 -6 -14 -6h-56q-8 0 -12 6l-64 108z" />
    <glyph glyph-name="scedilla" unicode="&#x15f;" horiz-adv-x="470" 
d="M372.5 48.5q-45.5 -42.5 -119.5 -51.5q-6 -2 -3 -5q39 -39 39 -81q0 -18 -6 -34q-12 -32 -37 -46t-56 -14q-19 0 -39 5q-4 1 -5.5 4t-0.5 8l7 23q3 10 13 7q11 -3 22 -3q18 0 31 8.5t19 26.5q3 9 3 19q0 40 -44 79q-1 2 -4 2q-66 6 -104 38.5t-38 79.5q0 9 1 14l1 12
q2 10 11 10h47q4 0 6.5 -3t1.5 -7l-1 -8q-3 -21 10 -40t38.5 -30.5t58.5 -11.5q53 0 88.5 26.5t35.5 65.5q0 22 -14.5 36t-34 22t-62.5 22q-49 16 -80.5 30.5t-53 39.5t-21.5 63q0 10 1 16q8 64 61.5 102t132.5 38q76 0 120.5 -34.5t44.5 -88.5q0 -10 -1 -15l-1 -3
q-2 -10 -11 -10h-45q-5 0 -7.5 3t-1.5 7l1 3q4 34 -25 57t-82 23q-52 0 -85.5 -23t-33.5 -62q0 -30 26 -46t82 -34q52 -16 83 -29.5t54 -39t23 -64.5q0 -64 -45.5 -106.5z" />
    <glyph glyph-name="scircumflex" unicode="&#x15d;" horiz-adv-x="470" 
d="M96 29q-46 34 -46 86q0 8 1 13l1 12q2 10 11 10h47q4 0 6.5 -3t1.5 -7l-1 -8q-3 -21 10 -40t38.5 -30.5t58.5 -11.5q53 0 88.5 26.5t35.5 65.5q0 22 -14.5 36t-34 22t-62.5 22q-49 16 -80.5 30.5t-53 39.5t-21.5 63q0 10 1 16q8 64 61.5 102t132.5 38q76 0 120.5 -34.5
t44.5 -88.5q0 -10 -1 -15l-1 -3q-2 -10 -11 -10h-45q-5 0 -7.5 3t-1.5 7l1 3q4 34 -25 57t-82 23q-52 0 -85.5 -23t-33.5 -62q0 -30 26 -46t82 -34q52 -16 83 -29.5t54 -39t23 -64.5q0 -11 -1 -17q-8 -64 -62.5 -103.5t-135.5 -39.5q-77 0 -123 34zM166.5 577.5
q-1.5 3.5 2.5 8.5l91 108q5 6 14 6h56q8 0 12 -6l65 -108l2 -5q0 -7 -9 -7h-39q-10 0 -12 6l-48 82q-1 2 -3 2t-3 -2l-69 -82q-5 -6 -13 -6h-39q-6 0 -7.5 3.5z" />
    <glyph glyph-name="germandbls" unicode="&#xdf;" horiz-adv-x="540" 
d="M59 10l62 500q12 93 71 146t150 53q82 0 128.5 -42.5t46.5 -116.5q0 -63 -27 -108.5t-77 -66.5q-2 -1 -2.5 -2t1.5 -2q35 -17 54.5 -53.5t19.5 -87.5q0 -11 -2 -33q-11 -93 -73.5 -145t-164.5 -52h-60q-10 0 -8 10l5 41q2 10 11 10h66q65 0 106.5 37t49.5 105q2 18 2 27
q0 54 -29 83.5t-81 30.5h-57q-9 0 -9 10l5 37q2 10 11 10h56q62 0 98 38t36 103q0 49 -29 77t-83 28q-57 0 -97 -35t-49 -97l-62 -505q0 -4 -3 -7t-8 -3h-49q-9 0 -9 10z" />
    <glyph glyph-name="t" unicode="t" horiz-adv-x="353" 
d="M331 450q-3 -3 -7 -3h-110q-4 0 -4 -4l-37 -295q-1 -8 -1 -21q0 -36 19 -51t58 -15h24q9 0 9 -10l-5 -41q-2 -10 -11 -10q-12 -1 -36 -1q-63 0 -95.5 21t-32.5 77q0 9 2 29l39 317q0 4 -4 4h-59q-10 0 -8 10l4 39q1 4 4 7t7 3h60q1 0 2.5 1t1.5 3l14 116q2 10 11 10h48
q4 0 6.5 -3t1.5 -7l-14 -116q0 -4 3 -4h110q10 0 8 -10l-4 -39q-1 -4 -4 -7z" />
    <glyph glyph-name="tbar" unicode="&#x167;" horiz-adv-x="353" 
d="M331 450q-3 -3 -7 -3h-110q-4 0 -4 -4l-12 -91q0 -4 4 -4h107q4 0 6.5 -3t1.5 -7l-3 -27q-2 -10 -11 -10h-107q-4 0 -4 -4l-19 -149q-1 -8 -1 -21q0 -36 19 -51t58 -15h24q9 0 9 -10l-5 -41q-2 -10 -11 -10q-12 -1 -36 -1q-63 0 -95.5 21t-32.5 77q0 9 2 29l21 171
q0 4 -4 4h-53q-10 0 -8 10l3 27q2 10 11 10h53q4 0 4 4l12 91q0 4 -4 4h-59q-10 0 -8 10l4 39q1 4 4 7t7 3h60q1 0 2.5 1t1.5 3l14 116q2 10 11 10h48q4 0 6.5 -3t1.5 -7l-14 -116q0 -4 3 -4h110q10 0 8 -10l-4 -39q-1 -4 -4 -7z" />
    <glyph glyph-name="tcaron" unicode="&#x165;" horiz-adv-x="353" 
d="M331 450q-3 -3 -7 -3h-110q-4 0 -4 -4l-37 -295q-1 -8 -1 -21q0 -36 19 -51t58 -15h24q9 0 9 -10l-5 -41q-2 -10 -11 -10q-12 -1 -36 -1q-63 0 -95.5 21t-32.5 77q0 9 2 29l39 317q0 4 -4 4h-59q-10 0 -8 10l4 39q1 4 4 7t7 3h60q1 0 2.5 1t1.5 3l14 116q2 10 11 10h48
q4 0 6.5 -3t1.5 -7l-14 -116q0 -4 3 -4h110q10 0 8 -10l-4 -39q-1 -4 -4 -7zM281 575.5q-2 3.5 2 8.5l72 109q3 7 12 7h44q6 0 7 -3.5t-3 -8.5l-79 -109q-7 -7 -13 -7h-35q-5 0 -7 3.5z" />
    <glyph glyph-name="u" unicode="u" horiz-adv-x="520" 
d="M427 506h49q5 0 7.5 -3t1.5 -7l-60 -486q-2 -10 -11 -10h-49q-9 0 -9 10l6 43q0 2 -2 3t-3 -1q-48 -62 -137 -62q-66 0 -109 37t-43 103q0 7 2 25l41 338q2 10 11 10h50q10 0 8 -10l-39 -317q-1 -7 -1 -21q0 -48 26.5 -75.5t74.5 -27.5q55 0 92 34t44 90l39 317
q2 10 11 10z" />
    <glyph glyph-name="uacute" unicode="&#xfa;" horiz-adv-x="522" 
d="M427 506h49q5 0 7.5 -3t1.5 -7l-60 -486q-2 -10 -11 -10h-49q-9 0 -9 10l6 43q0 2 -2 3t-3 -1q-48 -62 -137 -62q-66 0 -109 37t-43 103q0 7 2 25l41 338q2 10 11 10h50q10 0 8 -10l-39 -317q-1 -7 -1 -21q0 -48 26.5 -75.5t74.5 -27.5q55 0 92 34t44 90l39 317
q2 10 11 10zM273 575.5q-2 3.5 2 8.5l72 109q3 7 12 7h44q6 0 7 -3.5t-3 -8.5l-79 -109q-7 -7 -13 -7h-35q-5 0 -7 3.5z" />
    <glyph glyph-name="ubreve" unicode="&#x16d;" horiz-adv-x="522" 
d="M427 506h49q5 0 7.5 -3t1.5 -7l-60 -486q-2 -10 -11 -10h-49q-9 0 -9 10l6 43q0 2 -2 3t-3 -1q-48 -62 -137 -62q-66 0 -109 37t-43 103q0 7 2 25l41 338q2 10 11 10h50q10 0 8 -10l-39 -317q-1 -7 -1 -21q0 -48 26.5 -75.5t74.5 -27.5q55 0 92 34t44 90l39 317
q2 10 11 10zM234 609.5q-30 28.5 -28 70.5q0 10 10 10h26q9 0 9 -8q0 -26 19 -43.5t47 -17.5t51 16.5t30 42.5q3 10 12 10h26q11 0 8 -9q-8 -43 -45.5 -71.5t-86.5 -28.5q-48 0 -78 28.5z" />
    <glyph glyph-name="uni01D4" unicode="&#x1d4;" horiz-adv-x="522" 
d="M427 506h49q5 0 7.5 -3t1.5 -7l-60 -486q-2 -10 -11 -10h-49q-9 0 -9 10l6 43q0 2 -2 3t-3 -1q-48 -62 -137 -62q-66 0 -109 37t-43 103q0 7 2 25l41 338q2 10 11 10h50q10 0 8 -10l-39 -317q-1 -7 -1 -21q0 -48 26.5 -75.5t74.5 -27.5q55 0 92 34t44 90l39 317
q2 10 11 10zM207 691q0 7 9 7h39q10 0 12 -6l49 -82q1 -1 3 -1t3 1l68 82q5 6 13 6h39q6 0 7.5 -3.5t-2.5 -8.5l-92 -108q-5 -6 -14 -6h-56q-8 0 -12 6l-64 108z" />
    <glyph glyph-name="ucircumflex" unicode="&#xfb;" horiz-adv-x="522" 
d="M427 506h49q5 0 7.5 -3t1.5 -7l-60 -486q-2 -10 -11 -10h-49q-9 0 -9 10l6 43q0 2 -2 3t-3 -1q-48 -62 -137 -62q-66 0 -109 37t-43 103q0 7 2 25l41 338q2 10 11 10h50q10 0 8 -10l-39 -317q-1 -7 -1 -21q0 -48 26.5 -75.5t74.5 -27.5q55 0 92 34t44 90l39 317
q2 10 11 10zM191.5 577.5q-1.5 3.5 2.5 8.5l91 108q5 6 14 6h56q8 0 12 -6l65 -108l2 -5q0 -7 -9 -7h-39q-10 0 -12 6l-48 82q-1 2 -3 2t-3 -2l-69 -82q-5 -6 -13 -6h-39q-6 0 -7.5 3.5z" />
    <glyph glyph-name="udieresis" unicode="&#xfc;" horiz-adv-x="522" 
d="M427 506h49q5 0 7.5 -3t1.5 -7l-60 -486q-2 -10 -11 -10h-49q-9 0 -9 10l6 43q0 2 -2 3t-3 -1q-48 -62 -137 -62q-66 0 -109 37t-43 103q0 7 2 25l41 338q2 10 11 10h50q10 0 8 -10l-39 -317q-1 -7 -1 -21q0 -48 26.5 -75.5t74.5 -27.5q55 0 92 34t44 90l39 317
q2 10 11 10zM364 614.5q-13 13.5 -13 34.5q0 28 18 46t44 18q21 0 34.5 -13t13.5 -35q0 -27 -18 -45.5t-44 -18.5q-22 0 -35 13.5zM198 614.5q-13 13.5 -13 34.5q0 28 18 46t44 18q21 0 34.5 -13t13.5 -35q0 -27 -18 -45.5t-44 -18.5q-22 0 -35 13.5z" />
    <glyph glyph-name="uni1EE5" unicode="&#x1ee5;" horiz-adv-x="522" 
d="M427 506h49q5 0 7.5 -3t1.5 -7l-60 -486q-2 -10 -11 -10h-49q-9 0 -9 10l6 43q0 2 -2 3t-3 -1q-48 -62 -137 -62q-66 0 -109 37t-43 103q0 7 2 25l41 338q2 10 11 10h50q10 0 8 -10l-39 -317q-1 -7 -1 -21q0 -48 26.5 -75.5t74.5 -27.5q55 0 92 34t44 90l39 317
q2 10 11 10zM180 -171q-12 13 -12 34q0 25 17 42t41 17q20 0 33 -12.5t13 -32.5q0 -25 -17.5 -43t-41.5 -18q-21 0 -33 13z" />
    <glyph glyph-name="ugrave" unicode="&#xf9;" horiz-adv-x="522" 
d="M427 506h49q5 0 7.5 -3t1.5 -7l-60 -486q-2 -10 -11 -10h-49q-9 0 -9 10l6 43q0 2 -2 3t-3 -1q-48 -62 -137 -62q-66 0 -109 37t-43 103q0 7 2 25l41 338q2 10 11 10h50q10 0 8 -10l-39 -317q-1 -7 -1 -21q0 -48 26.5 -75.5t74.5 -27.5q55 0 92 34t44 90l39 317
q2 10 11 10zM340 579q0 -7 -9 -7h-35q-6 0 -11 7l-52 109q-1 2 -1 6q0 6 8 6h44q9 0 10 -7l45 -109q1 -2 1 -5z" />
    <glyph glyph-name="uni1EE7" unicode="&#x1ee7;" horiz-adv-x="522" 
d="M427 506h49q5 0 7.5 -3t1.5 -7l-60 -486q-2 -10 -11 -10h-49q-9 0 -9 10l6 43q0 2 -2 3t-3 -1q-48 -62 -137 -62q-66 0 -109 37t-43 103q0 7 2 25l41 338q2 10 11 10h50q10 0 8 -10l-39 -317q-1 -7 -1 -21q0 -48 26.5 -75.5t74.5 -27.5q55 0 92 34t44 90l39 317
q2 10 11 10zM296.5 558.5q-1.5 3.5 0.5 7.5q8 15 16.5 24.5t22.5 22.5t21 23t9 25q2 14 -9 25t-27 11q-17 0 -28.5 -7.5t-28.5 -28.5q-8 -8 -14 -2l-14 10q-7 6 -1 14q22 29 42 41.5t51 12.5q33 0 53 -18.5t20 -47.5q0 -26 -11.5 -43t-34.5 -37q-24 -22 -31 -35
q-6 -7 -14 -6l-17 4q-4 1 -5.5 4.5z" />
    <glyph glyph-name="uhorn" unicode="&#x1b0;" horiz-adv-x="522" 
d="M585.5 584q2.5 -3 1.5 -7q-9 -43 -37 -70.5t-66 -37.5q-3 -1 -3 -5l-56 -454q-2 -10 -11 -10h-49q-9 0 -9 10l6 43q0 2 -2 3t-3 -1q-48 -62 -137 -62q-66 0 -109 37t-43 103q0 7 2 25l41 338q2 10 11 10h50q10 0 8 -10l-39 -317q-1 -7 -1 -21q0 -48 26.5 -75.5
t74.5 -27.5q55 0 92 34t44 90l39 317q2 10 11 10h28q28 0 52.5 18t32.5 53q1 10 11 10h27q5 0 7.5 -3z" />
    <glyph glyph-name="uni1EE9" unicode="&#x1ee9;" horiz-adv-x="522" 
d="M585.5 584q2.5 -3 1.5 -7q-9 -43 -37 -70.5t-66 -37.5q-3 -1 -3 -5l-56 -454q-2 -10 -11 -10h-49q-9 0 -9 10l6 43q0 2 -2 3t-3 -1q-48 -62 -137 -62q-66 0 -109 37t-43 103q0 7 2 25l41 338q2 10 11 10h50q10 0 8 -10l-39 -317q-1 -7 -1 -21q0 -48 26.5 -75.5
t74.5 -27.5q55 0 92 34t44 90l39 317q2 10 11 10h28q28 0 52.5 18t32.5 53q1 10 11 10h27q5 0 7.5 -3zM273 575.5q-2 3.5 2 8.5l72 109q3 7 12 7h44q6 0 7 -3.5t-3 -8.5l-79 -109q-7 -7 -13 -7h-35q-5 0 -7 3.5z" />
    <glyph glyph-name="uni1EF1" unicode="&#x1ef1;" horiz-adv-x="522" 
d="M585.5 584q2.5 -3 1.5 -7q-9 -43 -37 -70.5t-66 -37.5q-3 -1 -3 -5l-56 -454q-2 -10 -11 -10h-49q-9 0 -9 10l6 43q0 2 -2 3t-3 -1q-48 -62 -137 -62q-66 0 -109 37t-43 103q0 7 2 25l41 338q2 10 11 10h50q10 0 8 -10l-39 -317q-1 -7 -1 -21q0 -48 26.5 -75.5
t74.5 -27.5q55 0 92 34t44 90l39 317q2 10 11 10h28q28 0 52.5 18t32.5 53q1 10 11 10h27q5 0 7.5 -3zM180 -171q-12 13 -12 34q0 25 17 42t41 17q20 0 33 -12.5t13 -32.5q0 -25 -17.5 -43t-41.5 -18q-21 0 -33 13z" />
    <glyph glyph-name="uni1EEB" unicode="&#x1eeb;" horiz-adv-x="522" 
d="M585.5 584q2.5 -3 1.5 -7q-9 -43 -37 -70.5t-66 -37.5q-3 -1 -3 -5l-56 -454q-2 -10 -11 -10h-49q-9 0 -9 10l6 43q0 2 -2 3t-3 -1q-48 -62 -137 -62q-66 0 -109 37t-43 103q0 7 2 25l41 338q2 10 11 10h50q10 0 8 -10l-39 -317q-1 -7 -1 -21q0 -48 26.5 -75.5
t74.5 -27.5q55 0 92 34t44 90l39 317q2 10 11 10h28q28 0 52.5 18t32.5 53q1 10 11 10h27q5 0 7.5 -3zM340 579q0 -7 -9 -7h-35q-6 0 -11 7l-52 109q-1 2 -1 6q0 6 8 6h44q9 0 10 -7l45 -109q1 -2 1 -5z" />
    <glyph glyph-name="uni1EED" unicode="&#x1eed;" horiz-adv-x="522" 
d="M585.5 584q2.5 -3 1.5 -7q-9 -43 -37 -70.5t-66 -37.5q-3 -1 -3 -5l-56 -454q-2 -10 -11 -10h-49q-9 0 -9 10l6 43q0 2 -2 3t-3 -1q-48 -62 -137 -62q-66 0 -109 37t-43 103q0 7 2 25l41 338q2 10 11 10h50q10 0 8 -10l-39 -317q-1 -7 -1 -21q0 -48 26.5 -75.5
t74.5 -27.5q55 0 92 34t44 90l39 317q2 10 11 10h28q28 0 52.5 18t32.5 53q1 10 11 10h27q5 0 7.5 -3zM296.5 558.5q-1.5 3.5 0.5 7.5q8 15 16.5 24.5t22.5 22.5t21 23t9 25q2 14 -9 25t-27 11q-17 0 -28.5 -7.5t-28.5 -28.5q-8 -8 -14 -2l-14 10q-7 6 -1 14q22 29 42 41.5
t51 12.5q33 0 53 -18.5t20 -47.5q0 -26 -11.5 -43t-34.5 -37q-24 -22 -31 -35q-6 -7 -14 -6l-17 4q-4 1 -5.5 4.5z" />
    <glyph glyph-name="uni1EEF" unicode="&#x1eef;" horiz-adv-x="522" 
d="M585.5 584q2.5 -3 1.5 -7q-9 -43 -37 -70.5t-66 -37.5q-3 -1 -3 -5l-56 -454q-2 -10 -11 -10h-49q-9 0 -9 10l6 43q0 2 -2 3t-3 -1q-48 -62 -137 -62q-66 0 -109 37t-43 103q0 7 2 25l41 338q2 10 11 10h50q10 0 8 -10l-39 -317q-1 -7 -1 -21q0 -48 26.5 -75.5
t74.5 -27.5q55 0 92 34t44 90l39 317q2 10 11 10h28q28 0 52.5 18t32.5 53q1 10 11 10h27q5 0 7.5 -3zM345 609q-13 6 -26 16q-16 10 -25.5 14.5t-20.5 4.5q-17 0 -30.5 -5.5t-26.5 -19.5q-6 -9 -13 -2l-16 18q-5 7 0 14q37 49 90 49q15 0 27 -5t21 -10.5t12 -7.5t12.5 -8
t17.5 -9t16 -3q31 0 55 28q7 10 13 2l16 -17q3 -3 3 -7t-4 -8q-17 -24 -41 -37t-49 -13q-18 0 -31 6z" />
    <glyph glyph-name="uhungarumlaut" unicode="&#x171;" horiz-adv-x="522" 
d="M427 506h49q5 0 7.5 -3t1.5 -7l-60 -486q-2 -10 -11 -10h-49q-9 0 -9 10l6 43q0 2 -2 3t-3 -1q-48 -62 -137 -62q-66 0 -109 37t-43 103q0 7 2 25l41 338q2 10 11 10h50q10 0 8 -10l-39 -317q-1 -7 -1 -21q0 -48 26.5 -75.5t74.5 -27.5q55 0 92 34t44 90l39 317
q2 10 11 10zM204 575.5q-2 3.5 1 8.5l68 109q4 7 12 7h45q6 0 7.5 -3.5t-2.5 -8.5l-71 -109q-4 -7 -13 -7h-40q-5 0 -7 3.5zM362.5 575.5q-2.5 3.5 0.5 8.5l71 109q4 7 12 7h42q6 0 7.5 -3.5t-1.5 -8.5l-73 -109q-5 -7 -13 -7h-38q-5 0 -7.5 3.5z" />
    <glyph glyph-name="umacron" unicode="&#x16b;" horiz-adv-x="522" 
d="M427 506h49q5 0 7.5 -3t1.5 -7l-60 -486q-2 -10 -11 -10h-49q-9 0 -9 10l6 43q0 2 -2 3t-3 -1q-48 -62 -137 -62q-66 0 -109 37t-43 103q0 7 2 25l41 338q2 10 11 10h50q10 0 8 -10l-39 -317q-1 -7 -1 -21q0 -48 26.5 -75.5t74.5 -27.5q55 0 92 34t44 90l39 317
q2 10 11 10zM186 604l4 31q0 4 3 7t7 3h242q10 0 8 -10l-3 -31q-2 -10 -11 -10h-242q-10 0 -8 10z" />
    <glyph glyph-name="uni0123" unicode="&#x123;" horiz-adv-x="519" 
d="M401 692.5q2 -3.5 -2 -8.5l-70 -109q-4 -7 -13 -7h-44q-5 0 -7 3.5t2 8.5l79 109q7 7 13 7h35q5 0 7 -3.5zM425 503q3 3 8 3h49q9 0 9 -10l-59 -479q-14 -112 -83 -164t-178 -52q-23 0 -34 1q-10 1 -9 11l8 46q2 11 11 9l27 -1q89 0 134 36.5t55 115.5l5 37q0 2 -1.5 2.5
t-3.5 -1.5q-51 -60 -134 -60q-63 0 -108 35t-54 99q-2 22 -2 37q0 37 6 85q10 87 28 128q25 60 75 96.5t114 36.5q86 0 124 -59q1 -2 3 -1t2 3l5 39q0 4 3 7zM383 187q3 18 9 67q8 67 8 85q0 10 -1 16q-2 42 -30 69.5t-74 27.5t-81 -27t-52 -70q-13 -31 -22 -100
q-5 -37 -5 -71q0 -18 2 -30q5 -42 34.5 -69.5t75.5 -27.5q48 0 81.5 27t46.5 69q5 16 8 34z" />
    <glyph glyph-name="uni0137" unicode="&#x137;" horiz-adv-x="486" 
d="M59 10l84 680q2 10 11 10h49q5 0 7.5 -3t1.5 -7l-50 -409q-1 -2 0.5 -3t3.5 1l233 222q5 5 12 5h59q5 0 6.5 -4t-2.5 -8l-142 -142q-2 -2 -1 -5l107 -335l1 -3q0 -9 -10 -9h-53q-8 0 -9 8l-90 292q0 1 -1.5 1.5t-2.5 -0.5l-121 -116q-3 -3 -3 -5l-21 -170q0 -4 -3 -7
t-8 -3h-49q-9 0 -9 10zM149 -186.5q-2 3.5 2 8.5l72 109q3 7 12 7h44q6 0 7 -3.5t-3 -8.5l-79 -109q-7 -7 -13 -7h-35q-5 0 -7 3.5z" />
    <glyph glyph-name="uni0146" unicode="&#x146;" horiz-adv-x="523" 
d="M435 474q40 -39 40 -106q0 -8 -2 -28l-40 -330q-2 -10 -11 -10h-50q-4 0 -6.5 3t-1.5 7l39 316q1 7 1 20q0 48 -27.5 76.5t-74.5 28.5q-54 0 -91 -34t-44 -89l-39 -318q0 -4 -3 -7t-8 -3h-49q-9 0 -9 10l60 486q2 10 11 10h49q5 0 7.5 -3t1.5 -7l-5 -43q-1 -2 0.5 -3
t3.5 1q24 31 59.5 46.5t78.5 15.5q70 0 110 -39zM159 -186.5q-2 3.5 2 8.5l72 109q3 7 12 7h44q6 0 7 -3.5t-3 -8.5l-79 -109q-7 -7 -13 -7h-35q-5 0 -7 3.5z" />
    <glyph glyph-name="uni0157" unicode="&#x157;" horiz-adv-x="353" 
d="M373 498q6 -4 4 -13l-17 -49q-5 -10 -13 -6q-16 7 -37 7l-13 -1q-51 -2 -88 -38.5t-44 -92.5l-37 -295q0 -4 -3 -7t-8 -3h-49q-9 0 -9 10l60 486q2 10 11 10h49q5 0 7.5 -3t1.5 -7l-8 -61q0 -3 1.5 -3.5t3.5 1.5q24 37 58 57.5t76 20.5q32 0 54 -13zM-29 -186.5
q-2 3.5 2 8.5l72 109q3 7 12 7h44q6 0 7 -3.5t-3 -8.5l-79 -109q-7 -7 -13 -7h-35q-5 0 -7 3.5z" />
    <glyph glyph-name="uni0163" unicode="&#x163;" horiz-adv-x="353" 
d="M248 -6q28 -34 28 -70q0 -18 -6 -34q-12 -31 -37 -45t-55 -14q-20 0 -40 5q-8 1 -5 11l6 24q3 10 13 7t22 -3q18 0 31 8.5t19 26.5q3 9 3 19q0 35 -35 70q-1 2 -4 2q-42 6 -64 28t-22 68q0 7 2 29l39 317q0 4 -4 4h-59q-10 0 -8 10l4 39q1 4 4 7t7 3h60q1 0 2.5 1t1.5 3
l14 116q2 10 11 10h48q4 0 6.5 -3t1.5 -7l-14 -116q0 -4 3 -4h110q10 0 8 -10l-4 -39q-1 -4 -4 -7t-7 -3h-110q-4 0 -4 -4l-37 -295q-1 -8 -1 -21q0 -36 19 -51t58 -15h24q9 0 9 -10l-5 -41q-2 -10 -11 -11h-16q-5 0 -2 -5z" />
    <glyph glyph-name="uni0219" unicode="&#x219;" horiz-adv-x="470" 
d="M96 29q-46 34 -46 86q0 8 1 13l1 12q2 10 11 10h47q4 0 6.5 -3t1.5 -7l-1 -8q-3 -21 10 -40t38.5 -30.5t58.5 -11.5q53 0 88.5 26.5t35.5 65.5q0 22 -14.5 36t-34 22t-62.5 22q-49 16 -80.5 30.5t-53 39.5t-21.5 63q0 10 1 16q8 64 61.5 102t132.5 38q76 0 120.5 -34.5
t44.5 -88.5q0 -10 -1 -15l-1 -3q-2 -10 -11 -10h-45q-5 0 -7.5 3t-1.5 7l1 3q4 34 -25 57t-82 23q-52 0 -85.5 -23t-33.5 -62q0 -30 26 -46t82 -34q52 -16 83 -29.5t54 -39t23 -64.5q0 -11 -1 -17q-8 -64 -62.5 -103.5t-135.5 -39.5q-77 0 -123 34zM128 -191.5q-2 3.5 2 8.5
l72 109q3 7 12 7h44q6 0 7 -3.5t-3 -8.5l-79 -109q-7 -7 -13 -7h-35q-5 0 -7 3.5z" />
    <glyph glyph-name="uni021B" unicode="&#x21b;" horiz-adv-x="353" 
d="M331 450q-3 -3 -7 -3h-110q-4 0 -4 -4l-37 -295q-1 -8 -1 -21q0 -36 19 -51t58 -15h24q9 0 9 -10l-5 -41q-2 -10 -11 -10q-12 -1 -36 -1q-63 0 -95.5 21t-32.5 77q0 9 2 29l39 317q0 4 -4 4h-59q-10 0 -8 10l4 39q1 4 4 7t7 3h60q1 0 2.5 1t1.5 3l14 116q2 10 11 10h48
q4 0 6.5 -3t1.5 -7l-14 -116q0 -4 3 -4h110q10 0 8 -10l-4 -39q-1 -4 -4 -7zM115 -179.5q-2 3.5 2 8.5l72 109q3 7 12 7h44q6 0 7 -3.5t-3 -8.5l-79 -109q-7 -7 -13 -7h-35q-5 0 -7 3.5z" />
    <glyph glyph-name="uogonek" unicode="&#x173;" horiz-adv-x="522" 
d="M417 -138q7 0 7 -8l1 -23v-2q0 -7 -8 -10q-20 -5 -41 -5q-34 0 -56 16.5t-22 53.5q0 61 70 111q3 1 2.5 3t-2.5 2h-3q-9 0 -9 10l6 43q0 2 -2 3t-3 -1q-48 -62 -137 -62q-66 0 -109 37t-43 103q0 7 2 25l41 338q2 10 11 10h50q10 0 8 -10l-39 -317q-1 -7 -1 -21
q0 -48 26.5 -75.5t74.5 -27.5q55 0 92 34t44 90l39 317q2 10 11 10h49q5 0 7.5 -3t1.5 -7l-61 -493q0 -4 -2 -5l-12 -10q-28 -23 -44.5 -47t-14.5 -47q1 -18 12.5 -27t28.5 -9q10 0 22 3z" />
    <glyph glyph-name="uring" unicode="&#x16f;" horiz-adv-x="522" 
d="M427 506h49q5 0 7.5 -3t1.5 -7l-60 -486q-2 -10 -11 -10h-49q-9 0 -9 10l6 43q0 2 -2 3t-3 -1q-48 -62 -137 -62q-66 0 -109 37t-43 103q0 7 2 25l41 338q2 10 11 10h50q10 0 8 -10l-39 -317q-1 -7 -1 -21q0 -48 26.5 -75.5t74.5 -27.5q55 0 92 34t44 90l39 317
q2 10 11 10zM245.5 605.5q-26.5 26.5 -26.5 67.5q0 33 17 61t44.5 44.5t59.5 16.5q41 0 67.5 -27t26.5 -68q0 -33 -16.5 -60.5t-44.5 -44t-59 -16.5q-42 0 -68.5 26.5zM369.5 643q21.5 21 21.5 52q0 25 -15.5 41.5t-40.5 16.5q-30 0 -52 -22t-22 -53q0 -24 16.5 -40
t41.5 -16q29 0 50.5 21z" />
    <glyph glyph-name="utilde" unicode="&#x169;" horiz-adv-x="522" 
d="M427 506h49q5 0 7.5 -3t1.5 -7l-60 -486q-2 -10 -11 -10h-49q-9 0 -9 10l6 43q0 2 -2 3t-3 -1q-48 -62 -137 -62q-66 0 -109 37t-43 103q0 7 2 25l41 338q2 10 11 10h50q10 0 8 -10l-39 -317q-1 -7 -1 -21q0 -48 26.5 -75.5t74.5 -27.5q55 0 92 34t44 90l39 317
q2 10 11 10zM345 609q-13 6 -26 16q-16 10 -25.5 14.5t-20.5 4.5q-17 0 -30.5 -5.5t-26.5 -19.5q-6 -9 -13 -2l-16 18q-5 7 0 14q37 49 90 49q15 0 27 -5t21 -10.5t12 -7.5t12.5 -8t17.5 -9t16 -3q31 0 55 28q7 10 13 2l16 -17q3 -3 3 -7t-4 -8q-17 -24 -41 -37t-49 -13
q-18 0 -31 6z" />
    <glyph glyph-name="v" unicode="v" horiz-adv-x="461" 
d="M173 8l-100 487v2q0 9 9 9h56q8 0 10 -8l74 -392q0 -2 2 -2t3 2l170 392q1 4 5 6t7 2l56 -1q5 0 6.5 -3t-0.5 -8l-219 -486q-1 -4 -5 -6t-7 -2h-57q-8 0 -10 8z" />
    <glyph glyph-name="w" unicode="w" horiz-adv-x="699" 
d="M150 8l-78 487v2q0 4 3 6.5t7 2.5h51q8 0 10 -9l54 -394q2 -5 5 0l153 394q4 9 12 9h46q10 0 10 -8l57 -394q1 -2 3 -2t3 2l154 393q4 9 12 9l50 -1q11 0 8 -11l-200 -486q-3 -8 -11 -8h-52q-7 0 -10 8l-59 374q-1 2 -2.5 2t-2.5 -2l-149 -374q-3 -8 -12 -8h-52
q-7 0 -10 8z" />
    <glyph glyph-name="wacute" unicode="&#x1e83;" horiz-adv-x="699" 
d="M150 8l-78 487v2q0 4 3 6.5t7 2.5h51q8 0 10 -9l54 -394q2 -5 5 0l153 394q4 9 12 9h46q10 0 10 -8l57 -394q1 -2 3 -2t3 2l154 393q4 9 12 9l50 -1q11 0 8 -11l-200 -486q-3 -8 -11 -8h-52q-7 0 -10 8l-59 374q-1 2 -2.5 2t-2.5 -2l-149 -374q-3 -8 -12 -8h-52
q-7 0 -10 8zM359 575.5q-2 3.5 2 8.5l72 109q3 7 12 7h44q6 0 7 -3.5t-3 -8.5l-79 -109q-7 -7 -13 -7h-35q-5 0 -7 3.5z" />
    <glyph glyph-name="wcircumflex" unicode="&#x175;" horiz-adv-x="699" 
d="M150 8l-78 487v2q0 4 3 6.5t7 2.5h51q8 0 10 -9l54 -394q2 -5 5 0l153 394q4 9 12 9h46q10 0 10 -8l57 -394q1 -2 3 -2t3 2l154 393q4 9 12 9l50 -1q11 0 8 -11l-200 -486q-3 -8 -11 -8h-52q-7 0 -10 8l-59 374q-1 2 -2.5 2t-2.5 -2l-149 -374q-3 -8 -12 -8h-52
q-7 0 -10 8zM277.5 577.5q-1.5 3.5 2.5 8.5l91 108q5 6 14 6h56q8 0 12 -6l65 -108l2 -5q0 -7 -9 -7h-39q-10 0 -12 6l-48 82q-1 2 -3 2t-3 -2l-69 -82q-5 -6 -13 -6h-39q-6 0 -7.5 3.5z" />
    <glyph glyph-name="wdieresis" unicode="&#x1e85;" horiz-adv-x="699" 
d="M150 8l-78 487v2q0 4 3 6.5t7 2.5h51q8 0 10 -9l54 -394q2 -5 5 0l153 394q4 9 12 9h46q10 0 10 -8l57 -394q1 -2 3 -2t3 2l154 393q4 9 12 9l50 -1q11 0 8 -11l-200 -486q-3 -8 -11 -8h-52q-7 0 -10 8l-59 374q-1 2 -2.5 2t-2.5 -2l-149 -374q-3 -8 -12 -8h-52
q-7 0 -10 8zM450 614.5q-13 13.5 -13 34.5q0 28 18 46t44 18q21 0 34.5 -13t13.5 -35q0 -27 -18 -45.5t-44 -18.5q-22 0 -35 13.5zM284 614.5q-13 13.5 -13 34.5q0 28 18 46t44 18q21 0 34.5 -13t13.5 -35q0 -27 -18 -45.5t-44 -18.5q-22 0 -35 13.5z" />
    <glyph glyph-name="wgrave" unicode="&#x1e81;" horiz-adv-x="699" 
d="M150 8l-78 487v2q0 4 3 6.5t7 2.5h51q8 0 10 -9l54 -394q2 -5 5 0l153 394q4 9 12 9h46q10 0 10 -8l57 -394q1 -2 3 -2t3 2l154 393q4 9 12 9l50 -1q11 0 8 -11l-200 -486q-3 -8 -11 -8h-52q-7 0 -10 8l-59 374q-1 2 -2.5 2t-2.5 -2l-149 -374q-3 -8 -12 -8h-52
q-7 0 -10 8zM426 579q0 -7 -9 -7h-35q-6 0 -11 7l-52 109q-1 2 -1 6q0 6 8 6h44q9 0 10 -7l45 -109q1 -2 1 -5z" />
    <glyph glyph-name="x" unicode="x" horiz-adv-x="463" 
d="M9 4q-2 4 2 8l191 238q3 3 1 6l-133 238q-1 1 -1 4q0 8 10 8h52q9 0 11 -6l104 -189q0 -1 2 -1t4 1l149 189q4 6 12 6h57q6 0 7.5 -3.5t-2.5 -8.5l-191 -238q-3 -3 -1 -6l133 -238q2 -4 2 -5q0 -7 -10 -7h-53q-9 0 -11 6l-103 189q-1 2 -3 1.5t-3 -1.5l-151 -189
q-4 -6 -12 -6h-56q-5 0 -7 4z" />
    <glyph glyph-name="y" unicode="y" horiz-adv-x="447" 
d="M6 -190l5 40q0 4 3 7t8 3h3q38 1 60.5 11.5t40.5 38.5t43 87q1 2 1.5 3.5t-0.5 2.5l-103 492v2q0 9 9 9h51q8 0 11 -8l76 -404q1 -2 3 -2t3 2l174 404q1 4 5 6t7 2h51q11 0 6 -11l-245 -539q-31 -67 -55.5 -99t-56.5 -44.5t-88 -12.5h-7q-7 0 -5 10z" />
    <glyph glyph-name="yacute" unicode="&#xfd;" horiz-adv-x="447" 
d="M6 -190l5 40q0 4 3 7t8 3h3q38 1 60.5 11.5t40.5 38.5t43 87q1 2 1.5 3.5t-0.5 2.5l-103 492v2q0 9 9 9h51q8 0 11 -8l76 -404q1 -2 3 -2t3 2l174 404q1 4 5 6t7 2h51q11 0 6 -11l-245 -539q-31 -67 -55.5 -99t-56.5 -44.5t-88 -12.5h-7q-7 0 -5 10zM235 579.5
q-2 3.5 2 8.5l72 109q3 7 12 7h44q6 0 7 -3.5t-3 -8.5l-79 -109q-7 -7 -13 -7h-35q-5 0 -7 3.5z" />
    <glyph glyph-name="ycircumflex" unicode="&#x177;" horiz-adv-x="447" 
d="M6 -190l5 40q0 4 3 7t8 3h3q38 1 60.5 11.5t40.5 38.5t43 87q1 2 1.5 3.5t-0.5 2.5l-103 492v2q0 9 9 9h51q8 0 11 -8l76 -404q1 -2 3 -2t3 2l174 404q1 4 5 6t7 2h51q11 0 6 -11l-245 -539q-31 -67 -55.5 -99t-56.5 -44.5t-88 -12.5h-7q-7 0 -5 10zM154.5 581.5
q-1.5 3.5 2.5 8.5l91 108q5 6 14 6h56q8 0 12 -6l65 -108l2 -5q0 -7 -9 -7h-39q-10 0 -12 6l-48 82q-1 2 -3 2t-3 -2l-69 -82q-5 -6 -13 -6h-39q-6 0 -7.5 3.5z" />
    <glyph glyph-name="ydieresis" unicode="&#xff;" horiz-adv-x="447" 
d="M6 -190l5 40q0 4 3 7t8 3h3q38 1 60.5 11.5t40.5 38.5t43 87q1 2 1.5 3.5t-0.5 2.5l-103 492v2q0 9 9 9h51q8 0 11 -8l76 -404q1 -2 3 -2t3 2l174 404q1 4 5 6t7 2h51q11 0 6 -11l-245 -539q-31 -67 -55.5 -99t-56.5 -44.5t-88 -12.5h-7q-7 0 -5 10zM326 618.5
q-13 13.5 -13 34.5q0 28 18 46t44 18q21 0 34.5 -13t13.5 -35q0 -27 -18 -45.5t-44 -18.5q-22 0 -35 13.5zM160 618.5q-13 13.5 -13 34.5q0 28 18 46t44 18q21 0 34.5 -13t13.5 -35q0 -27 -18 -45.5t-44 -18.5q-22 0 -35 13.5z" />
    <glyph glyph-name="uni1EF5" unicode="&#x1ef5;" horiz-adv-x="447" 
d="M6 -190l5 40q0 4 3 7t8 3h3q38 1 60.5 11.5t40.5 38.5t43 87q1 2 1.5 3.5t-0.5 2.5l-103 492v2q0 9 9 9h51q8 0 11 -8l76 -404q1 -2 3 -2t3 2l174 404q1 4 5 6t7 2h51q11 0 6 -11l-245 -539q-31 -67 -55.5 -99t-56.5 -44.5t-88 -12.5h-7q-7 0 -5 10zM252 -171
q-12 13 -12 34q0 25 17 42t41 17q20 0 33 -12.5t13 -32.5q0 -25 -17.5 -43t-41.5 -18q-21 0 -33 13z" />
    <glyph glyph-name="ygrave" unicode="&#x1ef3;" horiz-adv-x="447" 
d="M6 -190l5 40q0 4 3 7t8 3h3q38 1 60.5 11.5t40.5 38.5t43 87q1 2 1.5 3.5t-0.5 2.5l-103 492v2q0 9 9 9h51q8 0 11 -8l76 -404q1 -2 3 -2t3 2l174 404q1 4 5 6t7 2h51q11 0 6 -11l-245 -539q-31 -67 -55.5 -99t-56.5 -44.5t-88 -12.5h-7q-7 0 -5 10zM303 583q0 -7 -9 -7
h-35q-6 0 -11 7l-52 109q-1 2 -1 6q0 6 8 6h44q9 0 10 -7l45 -109q1 -2 1 -5z" />
    <glyph glyph-name="uni1EF7" unicode="&#x1ef7;" horiz-adv-x="447" 
d="M6 -190l5 40q0 4 3 7t8 3h3q38 1 60.5 11.5t40.5 38.5t43 87q1 2 1.5 3.5t-0.5 2.5l-103 492v2q0 9 9 9h51q8 0 11 -8l76 -404q1 -2 3 -2t3 2l174 404q1 4 5 6t7 2h51q11 0 6 -11l-245 -539q-31 -67 -55.5 -99t-56.5 -44.5t-88 -12.5h-7q-7 0 -5 10zM259.5 562.5
q-1.5 3.5 0.5 7.5q8 15 16.5 24.5t22.5 22.5t21 23t9 25q2 14 -9 25t-27 11q-17 0 -28.5 -7.5t-28.5 -28.5q-8 -8 -14 -2l-14 10q-7 6 -1 14q22 29 42 41.5t51 12.5q33 0 53 -18.5t20 -47.5q0 -26 -11.5 -43t-34.5 -37q-24 -22 -31 -35q-6 -7 -14 -6l-17 4q-4 1 -5.5 4.5z
" />
    <glyph glyph-name="uni1EF9" unicode="&#x1ef9;" horiz-adv-x="447" 
d="M6 -190l5 40q0 4 3 7t8 3h3q38 1 60.5 11.5t40.5 38.5t43 87q1 2 1.5 3.5t-0.5 2.5l-103 492v2q0 9 9 9h51q8 0 11 -8l76 -404q1 -2 3 -2t3 2l174 404q1 4 5 6t7 2h51q11 0 6 -11l-245 -539q-31 -67 -55.5 -99t-56.5 -44.5t-88 -12.5h-7q-7 0 -5 10zM308 613
q-13 6 -26 16q-16 10 -25.5 14.5t-20.5 4.5q-17 0 -30.5 -5.5t-26.5 -19.5q-6 -9 -13 -2l-16 18q-5 7 0 14q37 49 90 49q15 0 27 -5t21 -10.5t12 -7.5t12.5 -8t17.5 -9t16 -3q31 0 55 28q7 10 13 2l16 -17q3 -3 3 -7t-4 -8q-17 -24 -41 -37t-49 -13q-18 0 -31 6z" />
    <glyph glyph-name="z" unicode="z" horiz-adv-x="432" 
d="M15 10l6 48q0 5 5 12l320 366q2 1 1.5 3t-2.5 2h-264q-10 0 -8 10l5 45q2 10 11 10h341q10 0 8 -10l-6 -48q0 -5 -5 -12l-323 -366q-2 -1 -1.5 -3t2.5 -2h271q4 0 6.5 -3t1.5 -7l-5 -45q-1 -4 -4 -7t-7 -3h-345q-10 0 -8 10z" />
    <glyph glyph-name="zacute" unicode="&#x17a;" horiz-adv-x="432" 
d="M15 10l6 48q0 5 5 12l320 366q2 1 1.5 3t-2.5 2h-264q-10 0 -8 10l5 45q2 10 11 10h341q10 0 8 -10l-6 -48q0 -5 -5 -12l-323 -366q-2 -1 -1.5 -3t2.5 -2h271q4 0 6.5 -3t1.5 -7l-5 -45q-1 -4 -4 -7t-7 -3h-345q-10 0 -8 10zM225 575.5q-2 3.5 2 8.5l72 109q3 7 12 7h44
q6 0 7 -3.5t-3 -8.5l-79 -109q-7 -7 -13 -7h-35q-5 0 -7 3.5z" />
    <glyph glyph-name="zcaron" unicode="&#x17e;" horiz-adv-x="432" 
d="M15 10l6 48q0 5 5 12l320 366q2 1 1.5 3t-2.5 2h-264q-10 0 -8 10l5 45q2 10 11 10h341q10 0 8 -10l-6 -48q0 -5 -5 -12l-323 -366q-2 -1 -1.5 -3t2.5 -2h271q4 0 6.5 -3t1.5 -7l-5 -45q-1 -4 -4 -7t-7 -3h-345q-10 0 -8 10zM160 693q0 7 9 7h39q10 0 12 -6l49 -82
q1 -1 3 -1t3 1l68 82q5 6 13 6h39q6 0 7.5 -3.5t-2.5 -8.5l-92 -108q-5 -6 -14 -6h-56q-8 0 -12 6l-64 108z" />
    <glyph glyph-name="zdotaccent" unicode="&#x17c;" horiz-adv-x="432" 
d="M15 10l6 48q0 5 5 12l320 366q2 1 1.5 3t-2.5 2h-264q-10 0 -8 10l5 45q2 10 11 10h341q10 0 8 -10l-6 -48q0 -5 -5 -12l-323 -366q-2 -1 -1.5 -3t2.5 -2h271q4 0 6.5 -3t1.5 -7l-5 -45q-1 -4 -4 -7t-7 -3h-345q-10 0 -8 10zM232 611.5q-13 13.5 -13 34.5q0 28 18 46
t44 18q21 0 34.5 -13t13.5 -35q0 -27 -18 -45.5t-44 -18.5q-22 0 -35 13.5z" />
    <glyph glyph-name="a.sc" horiz-adv-x="510" 
d="M396 2q-3 2 -4 6l-18 97q-1 3 -4 3h-242q-3 0 -5 -3l-42 -97q-3 -8 -12 -8h-49q-5 0 -6.5 3t0.5 8l250 558q1 4 5 6t7 2h60q8 0 10 -8l114 -558v-2q0 -9 -9 -9h-48q-4 0 -7 2zM152 167.5q1 -1.5 3 -1.5h202q2 0 3.5 1.5t0.5 3.5l-62 323q0 2 -2 2t-4 -2l-141 -323
q-1 -2 0 -3.5z" />
    <glyph glyph-name="aacute.sc" horiz-adv-x="510" 
d="M396 2q-3 2 -4 6l-18 97q-1 3 -4 3h-242q-3 0 -5 -3l-42 -97q-3 -8 -12 -8h-49q-5 0 -6.5 3t0.5 8l250 558q1 4 5 6t7 2h60q8 0 10 -8l114 -558v-2q0 -9 -9 -9h-48q-4 0 -7 2zM152 167.5q1 -1.5 3 -1.5h202q2 0 3.5 1.5t0.5 3.5l-62 323q0 2 -2 2t-4 -2l-141 -323
q-1 -2 0 -3.5zM275 646.5q-2 3.5 2 8.5l72 109q3 7 12 7h44q6 0 7 -3.5t-3 -8.5l-79 -109q-7 -7 -13 -7h-35q-5 0 -7 3.5z" />
    <glyph glyph-name="abreve.sc" horiz-adv-x="510" 
d="M396 2q-3 2 -4 6l-18 97q-1 3 -4 3h-242q-3 0 -5 -3l-42 -97q-3 -8 -12 -8h-49q-5 0 -6.5 3t0.5 8l250 558q1 4 5 6t7 2h60q8 0 10 -8l114 -558v-2q0 -9 -9 -9h-48q-4 0 -7 2zM152 167.5q1 -1.5 3 -1.5h202q2 0 3.5 1.5t0.5 3.5l-62 323q0 2 -2 2t-4 -2l-141 -323
q-1 -2 0 -3.5zM236 680.5q-30 28.5 -28 70.5q0 10 10 10h26q9 0 9 -8q0 -26 19 -43.5t47 -17.5t51 16.5t30 42.5q3 10 12 10h26q11 0 8 -9q-8 -43 -45.5 -71.5t-86.5 -28.5q-48 0 -78 28.5z" />
    <glyph glyph-name="uni01CE.sc" horiz-adv-x="510" 
d="M396 2q-3 2 -4 6l-18 97q-1 3 -4 3h-242q-3 0 -5 -3l-42 -97q-3 -8 -12 -8h-49q-5 0 -6.5 3t0.5 8l250 558q1 4 5 6t7 2h60q8 0 10 -8l114 -558v-2q0 -9 -9 -9h-48q-4 0 -7 2zM152 167.5q1 -1.5 3 -1.5h202q2 0 3.5 1.5t0.5 3.5l-62 323q0 2 -2 2t-4 -2l-141 -323
q-1 -2 0 -3.5zM209 762q0 7 9 7h39q10 0 12 -6l49 -82q1 -1 3 -1t3 1l68 82q5 6 13 6h39q6 0 7.5 -3.5t-2.5 -8.5l-92 -108q-5 -6 -14 -6h-56q-8 0 -12 6l-64 108z" />
    <glyph glyph-name="acircumflex.sc" horiz-adv-x="510" 
d="M396 2q-3 2 -4 6l-18 97q-1 3 -4 3h-242q-3 0 -5 -3l-42 -97q-3 -8 -12 -8h-49q-5 0 -6.5 3t0.5 8l250 558q1 4 5 6t7 2h60q8 0 10 -8l114 -558v-2q0 -9 -9 -9h-48q-4 0 -7 2zM152 167.5q1 -1.5 3 -1.5h202q2 0 3.5 1.5t0.5 3.5l-62 323q0 2 -2 2t-4 -2l-141 -323
q-1 -2 0 -3.5zM193.5 648.5q-1.5 3.5 2.5 8.5l91 108q5 6 14 6h56q8 0 12 -6l65 -108l2 -5q0 -7 -9 -7h-39q-10 0 -12 6l-48 82q-1 2 -3 2t-3 -2l-69 -82q-5 -6 -13 -6h-39q-6 0 -7.5 3.5z" />
    <glyph glyph-name="adieresis.sc" horiz-adv-x="510" 
d="M396 2q-3 2 -4 6l-18 97q-1 3 -4 3h-242q-3 0 -5 -3l-42 -97q-3 -8 -12 -8h-49q-5 0 -6.5 3t0.5 8l250 558q1 4 5 6t7 2h60q8 0 10 -8l114 -558v-2q0 -9 -9 -9h-48q-4 0 -7 2zM152 167.5q1 -1.5 3 -1.5h202q2 0 3.5 1.5t0.5 3.5l-62 323q0 2 -2 2t-4 -2l-141 -323
q-1 -2 0 -3.5zM366 685.5q-13 13.5 -13 34.5q0 28 18 46t44 18q21 0 34.5 -13t13.5 -35q0 -27 -18 -45.5t-44 -18.5q-22 0 -35 13.5zM200 685.5q-13 13.5 -13 34.5q0 28 18 46t44 18q21 0 34.5 -13t13.5 -35q0 -27 -18 -45.5t-44 -18.5q-22 0 -35 13.5z" />
    <glyph glyph-name="agrave.sc" horiz-adv-x="510" 
d="M396 2q-3 2 -4 6l-18 97q-1 3 -4 3h-242q-3 0 -5 -3l-42 -97q-3 -8 -12 -8h-49q-5 0 -6.5 3t0.5 8l250 558q1 4 5 6t7 2h60q8 0 10 -8l114 -558v-2q0 -9 -9 -9h-48q-4 0 -7 2zM152 167.5q1 -1.5 3 -1.5h202q2 0 3.5 1.5t0.5 3.5l-62 323q0 2 -2 2t-4 -2l-141 -323
q-1 -2 0 -3.5zM342 650q0 -7 -9 -7h-35q-6 0 -11 7l-52 109q-1 2 -1 6q0 6 8 6h44q9 0 10 -7l45 -109q1 -2 1 -5z" />
    <glyph glyph-name="amacron.sc" horiz-adv-x="510" 
d="M396 2q-3 2 -4 6l-18 97q-1 3 -4 3h-242q-3 0 -5 -3l-42 -97q-3 -8 -12 -8h-49q-5 0 -6.5 3t0.5 8l250 558q1 4 5 6t7 2h60q8 0 10 -8l114 -558v-2q0 -9 -9 -9h-48q-4 0 -7 2zM152 167.5q1 -1.5 3 -1.5h202q2 0 3.5 1.5t0.5 3.5l-62 323q0 2 -2 2t-4 -2l-141 -323
q-1 -2 0 -3.5zM192.5 695q-2.5 3 -1.5 7l4 32q2 10 11 10h241q5 0 7.5 -3t1.5 -7l-4 -32q-2 -10 -11 -10h-241q-5 0 -7.5 3z" />
    <glyph glyph-name="aogonek.sc" horiz-adv-x="510" 
d="M396 2q-3 2 -4 6l-18 97q-1 3 -4 3h-242q-3 0 -5 -3l-42 -97q-3 -8 -12 -8h-49q-5 0 -6.5 3t0.5 8l250 558q1 4 5 6t7 2h60q8 0 10 -8l114 -558v-2q0 -9 -9 -9h-48q-4 0 -7 2zM152 167.5q1 -1.5 3 -1.5h202q2 0 3.5 1.5t0.5 3.5l-62 323q0 2 -2 2t-4 -2l-141 -323
q-1 -2 0 -3.5zM452 -181q-20 -5 -41 -5q-34 0 -56 16.5t-22 55.5q0 57 70 110q7 4 13 4h27q7 0 7 -5q0 -3 -5 -7q-29 -23 -45.5 -47t-14.5 -47q1 -18 12.5 -27t29.5 -9q10 0 22 3l3 1q6 0 8 -9v-22q0 -9 -8 -12z" />
    <glyph glyph-name="aring.sc" horiz-adv-x="510" 
d="M396 2q-3 2 -4 6l-18 97q-1 3 -4 3h-242q-3 0 -5 -3l-42 -97q-3 -8 -12 -8h-49q-5 0 -6.5 3t0.5 8l250 558q1 4 5 6t7 2h60q8 0 10 -8l114 -558v-2q0 -9 -9 -9h-48q-4 0 -7 2zM152 167.5q1 -1.5 3 -1.5h202q2 0 3.5 1.5t0.5 3.5l-62 323q0 2 -2 2t-4 -2l-141 -323
q-1 -2 0 -3.5zM247.5 676.5q-26.5 26.5 -26.5 67.5q0 33 17 61t44.5 44.5t59.5 16.5q41 0 67.5 -27t26.5 -68q0 -33 -16.5 -60.5t-44.5 -44t-59 -16.5q-42 0 -68.5 26.5zM371.5 714q21.5 21 21.5 52q0 25 -15.5 41.5t-40.5 16.5q-30 0 -52 -22t-22 -53q0 -24 16.5 -40
t41.5 -16q29 0 50.5 21z" />
    <glyph glyph-name="atilde.sc" horiz-adv-x="510" 
d="M396 2q-3 2 -4 6l-18 97q-1 3 -4 3h-242q-3 0 -5 -3l-42 -97q-3 -8 -12 -8h-49q-5 0 -6.5 3t0.5 8l250 558q1 4 5 6t7 2h60q8 0 10 -8l114 -558v-2q0 -9 -9 -9h-48q-4 0 -7 2zM152 167.5q1 -1.5 3 -1.5h202q2 0 3.5 1.5t0.5 3.5l-62 323q0 2 -2 2t-4 -2l-141 -323
q-1 -2 0 -3.5zM348 680q-13 6 -26 16q-16 10 -25.5 14.5t-20.5 4.5q-17 0 -30.5 -5.5t-26.5 -19.5q-6 -9 -13 -2l-16 18q-5 7 0 14q37 49 90 49q15 0 27 -5t21 -10.5t12 -7.5t12.5 -8t17.5 -9t16 -3q31 0 55 28q7 10 13 2l16 -17q3 -3 3 -7t-4 -8q-17 -24 -41 -37t-49 -13
q-18 0 -31 6z" />
    <glyph glyph-name="ae.sc" horiz-adv-x="773" 
d="M770 517q-3 -3 -8 -3h-279q-4 0 -4 -4l-23 -185q0 -4 3 -4h187q4 0 6.5 -3t1.5 -7l-5 -42q-2 -10 -11 -10h-186q-3 0 -5 -4l-23 -189q0 -4 4 -4h279q10 0 8 -10l-5 -42q0 -4 -3 -7t-8 -3h-343q-10 0 -8 10l11 94q0 4 -3 4h-198q-3 0 -5 -3l-63 -98q-3 -7 -12 -7h-56
q-5 0 -7.5 3.5t1.5 8.5l363 558q4 7 13 7h378q9 0 9 -10l-6 -43q0 -4 -3 -7zM197 166h166q4 0 4 4l39 319q1 3 -0.5 3t-3.5 -2l-206 -319q-3 -5 1 -5z" />
    <glyph glyph-name="b.sc" horiz-adv-x="521" 
d="M393 295q73 -33 73 -115q0 -15 -1 -23q-9 -75 -63.5 -116t-134.5 -41h-203q-10 0 -8 10l68 557q2 10 11 10h198q75 0 117 -32.5t42 -95.5q0 -55 -25.5 -92.5t-73.5 -56.5q-5 -2 0 -5zM186 510l-22 -181q-1 -1 0 -2.5t3 -1.5h139q51 0 84 30t33 77q0 38 -25.5 60t-68.5 22
h-139q-4 0 -4 -4zM363.5 95.5q33.5 32.5 33.5 83.5q0 40 -26 63.5t-70 23.5h-141q-3 0 -5 -4l-24 -195q0 -4 4 -4h144q51 0 84.5 32.5z" />
    <glyph glyph-name="c.sc" horiz-adv-x="503" 
d="M105.5 37q-47.5 45 -47.5 123q0 10 2 32l24 194q11 91 72 144.5t151 53.5q82 0 129.5 -44.5t47.5 -119.5q0 -9 -2 -29q-1 -4 -4 -7.5t-7 -3.5l-50 -2q-9 0 -9 9v1q1 8 1 22q0 53 -32 82t-89 29q-55 0 -93 -37t-46 -96l-24 -200q-1 -7 -1 -22q0 -52 30.5 -81.5t83.5 -29.5
q59 0 99 36t47 97v1q2 9 11 9l49 -3q9 0 9 -8q-11 -89 -71.5 -142t-150.5 -53q-82 0 -129.5 45z" />
    <glyph glyph-name="cacute.sc" horiz-adv-x="503" 
d="M105.5 37q-47.5 45 -47.5 123q0 10 2 32l24 194q11 91 72 144.5t151 53.5q82 0 129.5 -44.5t47.5 -119.5q0 -9 -2 -29q-1 -4 -4 -7.5t-7 -3.5l-50 -2q-9 0 -9 9v1q1 8 1 22q0 53 -32 82t-89 29q-55 0 -93 -37t-46 -96l-24 -200q-1 -7 -1 -22q0 -52 30.5 -81.5t83.5 -29.5
q59 0 99 36t47 97v1q2 9 11 9l49 -3q9 0 9 -8q-11 -89 -71.5 -142t-150.5 -53q-82 0 -129.5 45zM277 653.5q-2 3.5 2 8.5l72 109q3 7 12 7h44q6 0 7 -3.5t-3 -8.5l-79 -109q-7 -7 -13 -7h-35q-5 0 -7 3.5z" />
    </font>
</defs>
</svg>
